//TJADB Project
TITLE:Sonata,
Gekkou
TITLEJA:其方、激昂
SUBTITLE:--Katsuro Tajima
BPM:190
WAVE:Sonata,
Gekkou.ogg
OFFSET:-1.369
DEMOSTART:22.843

COURSE:Oni
LEVEL:10
BALLOON:20,12,12,12,28
SCOREINIT:380
SCOREDIFF:83
#START
#MEASURE 3/4
,
,
001,
101,
201,
500000000000000008000000100000000000,
205,
000008000000100000000000200000000000,
210,
500000000000000008000000100000200000,
#MEASURE 4/4
1021010102012011,
2011210012021120,
7,
0000800102012020,
7008,
7008,
7008,
1111222211112222,
#MEASURE 6/4
111211121010200020101111,
#GOGOSTART
#MEASURE 4/4
2011101120111011,
2011101120112020,
0011101120111011,
2011101120112020,
0011101120111011,
2011101120112020,
0011101220112020,
0011101220112020,
0010102011101020,
1120112010211010,
2222111122201210,
1222111120212010,
101010200000100100200000101010200000100100200000,
1400,
,
#GOGOEND
#MEASURE 6/4
200010001111100020112010,
#GOGOSTART
#MEASURE 4/4
2011101120111011,
201010100100100000100100201010100100200000200000,
100010001000200100100100200010001000200100100100,
200010001000200100100100200010001000200000200000,
100100100100200020001000200200100100200020001000,
200200100100200020001000200200100100200200100100,
#GOGOEND
2000200020002002,
202020200000200000000000200200200000200000000200,
2000200000202002,
2000200010102012,
1022102110221012,
1022102111221012,
1022102110221012,
1022102111221011,
2000100120001010,
200200101010200000000100100000100000202020200100,
2000100120001010,
200200102010200000000100100000100000202010200100,
2,
000000200000222200222200,
2000200020002220,
21111111,
201010111010111010111010,
2222211121212211,
2121,
#MEASURE 5/4
400300000010101,
#MEASURE 4/4
1011201110112011,
1021102110211021,
200100100100200200200200100100100100202020202020,
1022102210112022,
1022102212112022,
1011202210112022,
100000200200100100200200101010100100200000200200,
12012000,
21012000,
12212022,
12012110,
1020201110202011,
2020201110202011,
2020201110202011,
2020201110202010,
1022202020222020,
2022202022222020,
2022202020222020,
2022222210121111,
2011102220111022,
200000100100100000200200201010100200100000100100,
20040000,
1011222211112211,
20040000,
1011222211112211,
211121211121,
100100100100200200200200101010101010101010101010,
200010001000200020001000200010002000100100100100,
2111112111112111,
2121112111112111,
200010001000200010101000200010201000200100101010,
2011120000000010,
2,
#BARLINEOFF
#MEASURE 11/8
#BPMCHANGE 130.76
0700
#BPMCHANGE 133.8
000
#BPMCHANGE 154.27
000
#BPMCHANGE 156.61
0000
#BPMCHANGE 134.67
0000
#BPMCHANGE 158.86
0000,
#BARLINEON
#MEASURE 4/4
#BPMCHANGE 100
8112,
#MEASURE 6/4
#BPMCHANGE 84.94
10000002
#BPMCHANGE 196.27
#SCROLL 0.97
0010,
#GOGOSTART
#MEASURE 4/4
#BPMCHANGE 190
#SCROLL 1
1011202110112022,
1011201120112011,
2011102110112022,
1021211120112011,
2221222122212221,
1112111211121112,
1011221212112212,
1122112212121122,
101010102000101020102000100100200200100200200100,
14,
#GOGOEND
3,
#END

COURSE:Hard
LEVEL:8
BALLOON:16,9,9,9,11,11,11,11,22
SCOREINIT:390
SCOREDIFF:90
#START
#MEASURE 3/4
,
,
001,
101,
201,
500000000000000008000000100000000000,
205,
000008000000100000000000200000000000,
210,
500000000000000008000000100000100000,
#MEASURE 4/4
1001000020020000,
1002200022022020,
7,
0000800202022020,
7008,
7008,
7008,
1110100011101000,
#MEASURE 6/4
111010001020000020200000,
#MEASURE 4/4
#GOGOSTART
0011101010111010,
1011101010111010,
0011101010111010,
1011101010111010,
0011101010111010,
1011101010111010,
0011101010111010,
0011101010111010,
01121112,
12121111,
2220100022201000,
22112121,
1110202011102020,
1400,
,//34
#MEASURE 6/4
#GOGOEND
201000002220,//35
#MEASURE 4/4
#GOGOSTART
1011101010111010,
1011101010111020,
0011101010111010,
100000100100100000100000100010001000100000200000,
100000100100100000100000100000100000100010001000,
1011101010111010,//41
#GOGOEND
2000200000002002,
2000200000202002,
2000200000202002,
20201101,
1000100110101000,
1000100110101000,
1000100110101000,
1000100110101000,
1000101110001010,
1110100000000000,
2000202220002020,
2220200000001110,
2,
0000200022202220,
2000200020002220,
11111111,
111100111100,
1011101011101011,
1121,
#MEASURE 5/4
23000,
#MEASURE 4/4
11201120,
12121212,
70000008,
12121121,
1020102010111000,
12121121,
1020102010111000,
30012000,
20012000,
22212000,
22012000,
12211221,
22211221,
22211221,
22211220,
2022202020222020,
2022202020222000,
2022202020222020,
2022200010101000,
21122112,
21122111,
20040000,
70000008,
10040000,
70000008,
20040000,
70000008,
2,
20120120,
2011102220201000,
111100111100,
2022220000000010,
2,
#BARLINEOFF
#MEASURE 11/8
#BPMCHANGE 130.7634
007000000000
#BPMCHANGE 133.7987
000000000
#BPMCHANGE 154.2678
000000000
#BPMCHANGE 156.6052
000000000000
#BPMCHANGE 134.6702
000000000000
#BPMCHANGE 158.8617
000000000000,
#BARLINEON
#BPMCHANGE 100
#MEASURE 4/4
8112,
#BPMCHANGE 84.9383
#MEASURE 6/4
10000002
#BPMCHANGE 196.2689
#SCROLL 0.97
0000,//96
#BPMCHANGE 190.0003
#SCROLL 1
#MEASURE 4/4
#GOGOSTART
10211122,
11212121,
20211122,
11212121,
2220222022202220,
1110111011101110,
1011101110111010,
1111100011111000,
2222200022222001,
14,//107
#MEASURE 12/4
#GOGOEND
3,
#END

COURSE:Normal
LEVEL:6
BALLOON:9,5,5,5,5,5,5,5,13,13,5
#START
#MEASURE 3/4
,
,
001,
101,
201,
101,
201,
012,
220,
101,
#MEASURE 4/4
3022,
20001011,
7,
08002022,
70000800,
70000800,
70000800,
10101110,
#MEASURE 6/4
101011002200,//19
#MEASURE 4/4
#GOGOSTART
01101010,
1110,
01101010,
1110,
01101010,
1110,
01101000,
02202000,
01101110,
10101110,
11102220,
11102220,
1212,
1400,
,//34
#MEASURE 6/4
#GOGOEND
201000002220,//35
#MEASURE 4/4
#GOGOSTART
01101010,
1112,
01101010,
1112,
10101011,
10101022,//41
#GOGOEND
2202,
20200220,
20200220,
20200220,
10101110,
10101110,
10101110,
10101110,
33,
11100000,
44,
22200010,
4,
0222,
20202022,
20111010,
20111010,
22202020,
22,
#MEASURE 5/4
14000,
#MEASURE 4/4
1212,
02020202,
70000800,
1112,
1112,
11102220,
11102220,
32,
20022000,
22,
20022000,
02200220,
02200220,
02200220,
02200220,
00200022,
20200220,
20200220,
20201110,
2121,
2121,
20040000,
70000800,
10040000,
70000800,
20040000,
70000800,
2,
20020020,
7,
08,
2000020000000010,
1,
#BARLINEOFF
#MEASURE 11/8
#BPMCHANGE 130.7634
007000000000
#BPMCHANGE 133.7987
000000000
#BPMCHANGE 154.2678
000000000
#BPMCHANGE 156.6052
000000000000
#BPMCHANGE 134.6702
000000000000
#BPMCHANGE 158.8617
000000000000,
#BARLINEON
#BPMCHANGE 100
#MEASURE 4/4
8111,
#BPMCHANGE 84.9383
#MEASURE 6/4
10
#BPMCHANGE 196.2689
#SCROLL 0.97
0,//96
#BPMCHANGE 190.0003
#SCROLL 1
#MEASURE 4/4
#GOGOSTART
1002,
1222,
2002,
1222,
22202220,
11101110,
20222011,
10222011,
70000800,
34,//107
#MEASURE 12/4
#GOGOEND
3,
#END

COURSE:Easy
LEVEL:5
BALLOON:7,5,5,5,13,13,15,13,6
#START
#MEASURE 3/4
,
,
,
1,
2,
1,
201,
002,
220,
1,
#MEASURE 4/4
3,
01,
7,
08002000,
70000800,
70000800,
70000800,
1110,
#MEASURE 6/4
111020,//19
#MEASURE 4/4
#GOGOSTART
1111,
1110,
1111,
1110,
1111,
1110,
1110,
2220,
3,
,
1110,
1110,
1111,
1100,
,//34
#MEASURE 6/4
#GOGOEND
2,//35
#MEASURE 4/4
#GOGOSTART
1111,
1110,
2222,
2220,
1111,
1110,//41
#GOGOEND
2002,
2002,
2002,
2,
11,
1110,
11,
1110,
33,
1100,
44,
2200,
4,
,
,
4,
4,
2222,
22,
#MEASURE 5/4
12000,
#MEASURE 4/4
11,
1111,
2,
1110,
2220,
12,
12,
02,
02,
02,
02,
0202,
0202,
0202,
0202,
,
2200,
1100,
2200,
0101,
0101,
7,
0008,
7,
0008,
9,
09,
8,
500000000000000000000000000000000008000000000000,
7,
0008,
0000060000000000,
000000000000000000000000000000000000000000008000,
#BARLINEOFF
#MEASURE 11/8
#BPMCHANGE 130.7634
0000
#BPMCHANGE 133.7987
000
#BPMCHANGE 154.2678
000
#BPMCHANGE 156.6052
0000
#BPMCHANGE 134.6702
0000
#BPMCHANGE 158.8617
0000,
#BARLINEON
#BPMCHANGE 100
#MEASURE 4/4
,
#BPMCHANGE 84.9383
#MEASURE 6/4
30
#BPMCHANGE 196.2689
#SCROLL 0.97
0,//96
#BPMCHANGE 190.0003
#SCROLL 1
#MEASURE 4/4
#GOGOSTART
1001,
1111,
1002,
2222,
22,
1,
1111,
2222,
70000800,
34,//107
#MEASURE 12/4
#GOGOEND
3,
#END
