//TJADB Project
TITLE:CITRUS
TITLEJA:CITRUS
SUBTITLE:--The Way of the Househusband
SUBTITLEJA:ドラマ「極主夫道」より
BPM:82
WAVE:CITRUS.ogg
OFFSET:-2.587
DEMOSTART:49.413 //shinuchi:
11870/7480/5040/3270

COURSE:Oni
LEVEL:7
BALLOON:
SCOREINIT:1010,3350
SCOREDIFF:305
#START
101000200102101000200000,
101000200202100200102111,
100000100102100100200202,
100000200020100000200000500000000000000008000000,
100000202201100102200000,
100202202200100202200000,
100202200200100102200001,
11221020, //8
100102200200100102200000,
100102200200100202200000,
100102202201100102200001,
100100200200100202200000,
#SCROLL 1.5
102202102202102102100002,
102202102202100102100002,
102202102202100100200000,
3, //16
#SCROLL 1
#GOGOSTART
111100200100111200200000,
300200300200300111200000,
111100200100111200200000,
300200300200300111100202,
100100200201100100200001,
100000200000100000200000500000000008000000100000,
111100200100100111200001,
100000200000100000200000600000000008000000000000, //24
#SCROLL 1.5
102202102202100102100001,
100201100200100111200000,
122202102202102102100001,
100202100202100000000000,
#GOGOEND
#SCROLL 1
101000200102101000200000,
101000200202100200102111,
100000100102100100200202,
100000200020100000200000600000000000000000000008,
0, //33
#END

COURSE:Hard
LEVEL:5
BALLOON:18,18,21
SCOREINIT:1210,5440
SCOREDIFF:418
#START
110200110200,
101000200000200100101000,
10221120,
300000200000300000200000500000000000000008000000,
100000200200100101100000,
100000200200100202200000,
100000200200100101100000,
70000008, //8
100000200200100101100000,
100000200200100202200000,
100100200200100101100000,
70000008,
#SCROLL 1.5
100200100200100100200001,
100200100200100100200001,
12121120,
3, //16
#SCROLL 1
#GOGOSTART
30211120,
300000200000300000200000500000000008000000000000,
30211120,
300000200000300000200000500000000008000000000000,
100200100101100100200001,
100000200000100000200000500000000008000000000000,
100000200101100100200001,
100000200000100000200000600000000008000000000000, //24
#SCROLL 1.5
100200100200100100200001,
12121120,
100200100200100100200001,
12111000,
#GOGOEND
#SCROLL 1
110200110200,
101000200000200100101000,
10221120,
900000000000000000000000000000000009000000000008,
0, //33
#END

COURSE:Normal
LEVEL:3
BALLOON:13,13,14
SCOREINIT:1170,8510
SCOREDIFF:588
#START
1211,
10200110,
1212,
3330,
1012,
1022,
1012,
70000008, //8
1012,
1022,
1212,
70000008,
#SCROLL 1.5
10202220,
10202220,
10202220,
3, //16
#SCROLL 1
#GOGOSTART
30111020,
300000100000300000100000500000000008000000000000,
30111020,
300000100000300000100000500000000008000000000000,
10111010,
12121010,
10111020,
3330, //24
#SCROLL 1.5
10101110,
10101110,
10101110,
1110,
#GOGOEND
#SCROLL 1
1211,
10200110,
1212,
900000000000000000000000000000000009000000000008,
0, //33
#END

COURSE:Easy
LEVEL:2
BALLOON:7,7,11
SCOREINIT:1200,13640
SCOREDIFF:948
#START
1011,
1011,
1110,
3330,
22,
22,
22,
70000800, //8
12,
12,
12,
70000800,
#SCROLL 1.5
11,
11,
22,
3, //16
#SCROLL 1
#GOGOSTART
3112,
500000000000000000000000000008000000000000000000,
3112,
500000000000000000000000000008000000000000000000,
11,
1110,
1111,
3330, //24
#SCROLL 1.5
1120,
1120,
1120,
1220,
#GOGOEND
#SCROLL 1
1011,
1011,
1111,
900000000000000000000000000000000000000000000008,
0, //33
#END
