TITLE:Shining Star
TITLEJA:シャイニングスター
SUBTITLE:--MaouDamashii
SUBTITLEJA:魔王魂
BPM:158
WAVE:Shining Star.ogg
OFFSET:-1.707
DEMOSTART:55.93

COURSE:Oni
LEVEL:6
BALLOON:
SCOREINIT:2700
SCOREDIFF:0
#START
,
,
,
10121212,
11220221,
10121220,
2020201000112022,
10121210,
11120221,
10101011,
0010001110303030,
30011021,
11111021,
11120112,
0010100010111010,
10211021,
11111021,
10110122,
0020001020112010,
10111021,
11111012,
22220112,
0020201020222010,
10211021,
11111021,
12112121,
2022202220101000,
3000100010000011,
11101000,
4000200020111010,
42202210,
31124222,
3010102040222000,
1020102010201120,
0011100011100011,
1000111000112000,
#GOGOSTART
1020111010101020,
1110100020101000,
1000112010200010,
0010202220001010,
1011101110111011,
2011101120101000,
1120002000100010,
0011201110111000,
1020111010101020,
1110100020101000,
1000112010200010,
0010202220001010,
1022202220222022,
1022202210101000,
11010103,
0010101110101020,
20121120,
42221125,
,
000000000000000000000000000000000000000008000000,
#GOGOEND
,
,
,
#END

COURSE:Hard
LEVEL:5
BALLOON:10,10
SCOREINIT:4360
SCOREDIFF:0
#START
,
,
,
1111,
11120000,
1112,
22210000,
1111,
11120000,
10101017,
00000801,
10011001,
11111001,
10110111,
000000500000000000000000000008000000000000100000,
10011001,
11111001,
10110101,
01011001,
10011001,
11111002,
22220102,
000000500000000000000000000008000000000000100000,
10011001,
11111001,
10110101,
01011000,
3110,
3110,
4220,
4220,
3142,
3141,
10111011,
70000008,
,
#GOGOSTART
1010111010001000,
11102010,
1000111000100010,
01120010,
1011100010101000,
1011100010101000,
21010101,
02101000,
1010111010001000,
11102010,
1000111000100010,
01120010,
2022200020202000,
2022200020202000,
21010103,
02101112,
2222,
31111125,
,
000000000000000000000000000000000000000008000000,
#GOGOEND
,
,
,
#END

COURSE:Normal
LEVEL:3
BALLOON:6
SCOREINIT:7700
SCOREDIFF:0
#START
,
,
,
1110,
10010000,
1110,
10010000,
1110,
10010000,
10101007,
08,
12,
1120,
10110005,
000000000000000000000000000008000000000000000000,
12,
1120,
10110005,
000000000000000000000008000008000000000000000000,
11,
1110,
20220000,
2220,
11,
1110,
10110001,
01001000,
3110,
3110,
4220,
4220,
34,
34,
3111,
600000000000000000000000000000000000000008000000,
,
#GOGOSTART
1110,
1120,
10110101,
000000500000000000000008000000000000000000000000,
1111,
1220,
30030003,
0110,
1110,
1120,
10110101,
000000500000000000000008000000000000000000000000,
1111,
1220,
30030303,
0110,
4022,
40004025,
,
000000000000000000000000000000000000000008000000,
#GOGOEND
,
,
,
#END

COURSE:Easy
LEVEL:3
BALLOON:
SCOREINIT:12100
SCOREDIFF:0
#START
,
,
,
1,
2,
1,
2,
1,
2,
10000005,
000000000000000000000008000000000000000000000000,
11,
1110,
10100005,
000000000000000000000008000000000000000000000000,
11,
1110,
10100005,
000000000000000000000008000000000000000000000000,
11,
1110,
20200005,
000000000000000000000008000000000000000000000000,
11,
1110,
10010005,
000000000000000000000008000000000000000000000000,
3,
3,
3,
3,
33,
33,
33,
600000000000000000000000000000000000000008000000,
,
#GOGOSTART
1110,
1110,
10010005,
000000000000000000000008000000000000000000000000,
1110,
1110,
10010005,
000000000000000000000008000000000000000000000000,
1110,
1110,
10010005,
000000000000000000000008000000000000000000000000,
1111,
11,
30000003,
04,
44,
43,
5,
000000000000000000000000000000000000000008000000,
#GOGOEND
,
,
,
#END
