//TJADB Project
TITLE:HaneMari Taisou
TITLEJA:はねまり体操
SUBTITLE:--HaneMari Channel
SUBTITLEJA:はねまりチャンネル
BPM:142
WAVE:HaneMari Taisou.ogg
OFFSET:-1.263
DEMOSTART:44.258

COURSE:Oni
LEVEL:5
BALLOON:14
SCOREINIT:3280
SCOREDIFF:0
#START
#GOGOSTART
33,
30203022,
100000100000200000100000600000000008000000000000,
#GOGOEND
30303220,
3000201000102011,
11210126,
000000000000000000000000000000000000000008000000,
12221120, //8
1010200010102220,
11221404,
11201122,
1022202010201000,
1010200010102220,
11221120,
11201122,
1022202010203000, //16
1111102010102010,
20202220,
11212122,
12222140,
1110222010102010,
20202220,
11212100,
11212100,
700000000000000000000000000000000000000000080000,
3344, //26
#GOGOSTART
1010202010101110,
11211011,
1110201010002000,
11212120,
1010202010101110,
11211011,
1110201010002000,
11212010, //34
34343434,
33433011,
1110201010002000,
1010201020102220,
1010202010101110,
11211211,
100100100000100000100000600000000008000000000000,
#GOGOEND
30303220, //42
3000201000102011,
11210126,
000000000000000000000000000000000000000008000000,
12221121,
40404440,
600000000000000000000000000008000000300000300000,
0,
0, //50
#END

COURSE:Hard
LEVEL:3
BALLOON:12,11,25
SCOREINIT:5230
SCOREDIFF:0
#START
#GOGOSTART
33,
3130,
100000000000100000100000600000000008000000000000,
#GOGOEND
3332,
30210120,
10210126,
000000000000000000000000000000000000000000000008,
01101110, //8
10201110,
10201212,
10201111,
0212,
10201110,
10201120,
10201111,
0214, //16
500000000000000000000000000000000000000008000000,
20202220,
11111110,
22222030,
500000000000000000000000000000000000000008000000,
20202220,
11201100,
11201100,
9009,
8, //26
#GOGOSTART
11211020,
10102011,
10111000,
21212000,
11211020,
10102011,
10111000,
21212000, //34
700000000000000000000000000000000000000000080000,
30304011,
10111000,
21212000,
11211010,
11211011,
200000200000100000100000600000000008000000000000,
#GOGOEND
3332, //42
30210120,
10210126,
000000000000000000000000000000000000000000000008,
01101110,
9,
09,
8,
0, //50
#END

COURSE:Normal
LEVEL:2
BALLOON:9,7,17
SCOREINIT:9800
SCOREDIFF:0
#START
#GOGOSTART
33,
33,
600000000000000000000000000000000008000000000000,
#GOGOEND
3330,
3,
10001006,
000000000000000000000000000000000000000000000008,
0011, //8
11,
11,
1011,
02,
11,
11,
1011,
02, //16
500000000000000000000000000000000000000008000000,
22,
1111,
2023,
500000000000000000000000000000000000000008000000,
22,
10101100,
10101100,
9009,
8, //26
#GOGOSTART
1112,
1110,
1120,
10111000,
1112,
1110,
1120,
10111000, //34
700000000000000000000000000000000000000000080000,
3330,
1110,
10111000,
1112,
1121,
600000000000000000000000000000000008000000000000,
#GOGOEND
3330, //42
3,
10001006,
000000000000000000000000000000000000000000000008,
0011,
9,
09,
8,
0, //50
#END

COURSE:Easy
LEVEL:2
BALLOON:7,4,14
SCOREINIT:17710
SCOREDIFF:0
#START
#GOGOSTART
3,
3,
600000000000000000000000000008000000000000000000,
#GOGOEND
3330,
3,
10000006,
000000000000000000000000000000000000000000000008,
0, //8
1,
1,
11,
0,
1,
1,
11,
0, //16
500000000000000000000000000000000000000000000008,
0,
22,
2,
500000000000000000000000000000000000000000000008,
0,
11,
11,
9009,
8, //26
#GOGOSTART
11,
1,
11,
1110,
11,
1,
11,
1110, //34
70000800,
3,
11,
1110,
1111,
1110,
600000000000000000000000000008000000000000000000,
#GOGOEND
3330, //42
3,
10000006,
000000000000000000000000000000000000000000000008,
0,
9,
09,
8,
0, //50
#END
