//TJADB Project
TITLE:R.I.P. Hero
TITLEJA:そして勇者は眠りにつく
SUBTITLE:--d-d-dice
SUBTITLEJA:打打だいず
BPM:193.5
WAVE:R.I.P. Hero.ogg
OFFSET:-0.352
DEMOSTART:94.807

COURSE:Edit
LEVEL:10
BALLOON:14,18,13,13,50
SCOREINIT:760
SCOREDIFF:0
#START
#BARLINEOFF
,
#BARLINEON
#BPMCHANGE 90
#SCROLL 1
101122100200101122100200,
101122100222102111111111,
#BARLINEOFF
#MEASURE 2/4
20000022,
#BARLINEON
#MEASURE 4/4
#BPMCHANGE 160
#SCROLL 0.5625
220000
#BPMCHANGE 149
#SCROLL 0.6040268456
200200000000
#BPMCHANGE 141
#SCROLL 0.6382978723
200200,
#BARLINEOFF
#BPMCHANGE 118
#SCROLL 0.7627118644
220000200200000000
#BPMCHANGE 126
#SCROLL 0.7142857143
000000,
200000000000
#BPMCHANGE 114.5
#SCROLL 0.7860262009
000000000000
#BPMCHANGE 232
#SCROLL 1.0086206897
580580580580
#BPMCHANGE 234
#SCROLL 1
580000000000,
#BARLINEON
#GOGOSTART
1102001102001010,
1102001102001010,
2201002201002020,
2201002201002222,
1102001102001010,
1102001102001010,
200200000100000000200200000000101010200200200200,
#GOGOEND
2000222010101010,
#GOGOSTART
1102201102201010,
2201102201102020,
1102201102201010,
202020200000101010100000200100100200100100200000,
0000111120201020,
1010111120201020,
100100201010201010200000,
400012004000400012004000,
#GOGOEND
#SCROLL 0.74786324786
101110222222,
101110222222,
101110222222,
7008,
100000001000100010000000500000080000000020000000,
111010222020,
100000001000100020000000500000000000000800000000,
#BPMCHANGE 230
#SCROLL 0.7608695652
220100200110200100,
#BPMCHANGE 234
#SCROLL 0.74786324786
100000001000100010000000500000080000000020000000,
111010222020,
100000002000200020000000500000000000000800000000,
#BPMCHANGE 232
#SCROLL 1.0086206896551724
22221000
#BPMCHANGE 234
#SCROLL 1
20002000,
1110100022202010,
0020111022102010,
0011101022202010,
0020111022112010,
0010222010222210,
0022101022200030,
000000100200200200100000000000100000202020100000,
0022100022100022,
200200200200200200200200200020002000200020002000,
22224000,
00302302,
2121201212101110,
2222200010002211,
1011101011101000,
300000000000202020100000100000200200100000100000,
1222101222122122,
122122,
1111221122102211,
122122,
1122111122112211,
122122,
1111221122112211,
122122,
1122111122221120,
2211221111221122,
1111221122112211,
211211211211,
200
#BPMCHANGE 218
#SCROLL 1.073394495412844
0,
#MEASURE 3/4
#BPMCHANGE 165.7
#SCROLL 1
101022,
112,
100020002222,
2,
#BPMCHANGE 173.7
102022,
122,
102220221111,
22
#BPMCHANGE 183
#SCROLL 0.9491803279
2,
#BPMCHANGE 174
#SCROLL 1
112211221122,
#BPMCHANGE 185
111211211,
#BPMCHANGE 195
112211221122,
#BPMCHANGE 207
111211211,
#BPMCHANGE 217
112211221122,
#BPMCHANGE 228
111211211,
#MEASURE 4/4
#BPMCHANGE 231
2111211120002000,
#BPMCHANGE 238
211100211100200000200000,
#BPMCHANGE 239
#SCROLL 1.00418410041841
100100000200200000100100000200200000101000200000,
#BPMCHANGE 240
#SCROLL 1
1020111212101110,
100100000200200000100100000000202000100000200000,
100000100100000200000100100000202020100000100000,
200200000100100000200200000100100000202000100000,
2222201112221111,
2,
1122112211221122,
#GOGOSTART
1111201211202012,
1021201211122030,
0010201111211010,
0011101022112211,
100100100100200000100200100100200000200000101010,
100100000222200200000300,
0011201021112010,
111211211211,
2001102001102000,
222100201010201010201010,
2001102001102000,
1020111020202210,
0020111020202210,
0020222210200070,
0008,
1111111111111111,
#GOGOEND
2022200020200020,
#BARLINEOFF
02020202,
#GOGOSTART
033333,
#BARLINEON
3000101012121212,
100100100100200000100200100100200000200000101010,
100100100222200200200300,
0011201022202210,
121111121111,
100010002000200010001000200200100100200200100100,
200020001000100020002000100100200200100100200000,
202010100000202010100000200200200000000000300000,
0012121020222010,
02700000,
8000111120222010,
02700000,
8000111122200030,
0011101021212030,
0011102121212030,
001010101012,
121212121212,
1122112211221122,
2222222220000022,
1111111111111111,
1111111111111111,
#GOGOEND
2,
#BARLINEOFF
24,
#BARLINEON
#GOGOSTART
#BPMCHANGE 250
11221122,
1111222211112211,
#BPMCHANGE 260
11221122,
1122112222112211,
#BPMCHANGE 270
11221122,
1111221122112211,
#BPMCHANGE 280
11221122,
1122112211111111,
#GOGOEND
#BPMCHANGE 290
122122122122,
#GOGOSTART
#BPMCHANGE 300
1111111111111111,
#GOGOEND
#BPMCHANGE 122
#SCROLL 1.0245901639344261
2022
#BPMCHANGE 125
#SCROLL 1
0222,
2000202000200222,
#MEASURE 6/4
#BPMCHANGE 102
#SCROLL 1.2254901960784315
7
#BPMCHANGE 600
#SCROLL 0.20833333333333334
0
#BPMCHANGE 117
#SCROLL 1.0683760683760684
0
#BPMCHANGE 165
#SCROLL 0.7575757575757576
0
#BPMCHANGE 500
#SCROLL 0.25
00,
#MEASURE 4/4
#BPMCHANGE 45.1
#SCROLL 2.7716186252771617
0080
#BPMCHANGE 240
#SCROLL 0.5208333333333334
1111
#BPMCHANGE 268
#SCROLL 0.4664179104477612
11111111,
#END

COURSE:Oni
LEVEL:9
BALLOON:6,25,38,10,6,12,12,35
SCOREINIT:1700
SCOREDIFF:0
#START
#BARLINEOFF
,
#BARLINEON
#BPMCHANGE 90
#SCROLL 1
100222100000100222100000,
100000202020100000101010200000585858585858585858,
#BARLINEOFF
#MEASURE 2/4
00000022,
#BARLINEON
#MEASURE 4/4
#BPMCHANGE 160
#SCROLL 0.5625
20
#BPMCHANGE 149
#SCROLL 0.6040268456
2200
#BPMCHANGE 141
#SCROLL 0.6382978723
22,
#BARLINEOFF
#BPMCHANGE 118
#SCROLL 0.7627118644
202200
#BPMCHANGE 126
#SCROLL 0.7142857143
00,
200000000000
#BPMCHANGE 114.5
#SCROLL 0.7860262009
000000000000
#BPMCHANGE 232
#SCROLL 1.0086206897
580580580580
#BPMCHANGE 234
#SCROLL 1
580000000000,
#BARLINEON
#GOGOSTART
3002003002003010,
3002003002003010,
2001002001002020,
2001002001002020,
3002003002003010,
3002003002003010,
2001002001002020,
#GOGOEND
2,
#GOGOSTART
3002003002003010,
2001002001002020,
3002003002003010,
2222100020020020,
000000000000500000000000000000000000000000000008,
000000000000500000000000000000000000000000000008,
000111111100,
444444,
#GOGOEND
#SCROLL 0.74786324786
100000222200,
100000222200,
100000222200,
400000111111,
100202,
100222,
100000000000000020000000500000000000000000000008,
#BPMCHANGE 230
#SCROLL 0.7608695652
,
#BPMCHANGE 234
#SCROLL 0.74786324786
100202,
100222,
100000000000000020000000500000000000000000000008,
#BPMCHANGE 232
#SCROLL 1.0086206896551724
00
#BPMCHANGE 234
#SCROLL 1
22,
00102201,
0020101022200010,
0020111020200010,
0020101022222010,
0020111020200010,
00304403,
0022203000222030,
04403302,
,
04,
00300300,
2222204000001000,
7000000080002220,
10110220,
0000111010111010,
2220102220102220,
7,
,
8,
,
13,
600000000000000000000000000000000000000000000008,
03,
600000000000000000000000000000000000000008000000,
7,
,
,
800
#BPMCHANGE 218
#SCROLL 1.073394495412844
0,
#MEASURE 3/4
#BPMCHANGE 165.7
#SCROLL 1
101022,
112,
1,
2,
#BPMCHANGE 173.7
102022,
122,
1,
20
#BPMCHANGE 183
#SCROLL 0.9491803279
0,
#BPMCHANGE 174
#SCROLL 1
101011,
#BPMCHANGE 185
222,
#BPMCHANGE 195
101011,
#BPMCHANGE 207
222,
#BPMCHANGE 217
101011,
#BPMCHANGE 228
222,
#MEASURE 4/4
#BPMCHANGE 231
1100110020002000,
#BPMCHANGE 238
1110111020002000,
#BPMCHANGE 239
#SCROLL 1.00418410041841
3002003002003010,
#BPMCHANGE 240
#SCROLL 1
3000002000001110,
3002003002003010,
3000002002001010,
4001004001004020,
4000001110001111,
2,
1110111011101110,
#GOGOSTART
1000200011200011,
1010002220200030,
0000200011200010,
0020102011102020,
1000200011200011,
1010002120200030,
0000200011200010,
000222222200,
20120020,
000111111200,
20120020,
0000111020200030,
0020111020200030,
0020222010200070,
00000008,
1110111011101110,
#GOGOEND
2,
#BARLINEOFF
,
#GOGOSTART
033333,
#BARLINEON
78,
1000200011200022,
2020102220200030,
0000200011200010,
000222222200,
200102000100,
200102000100,
2222100020200030,
0011111020200010,
02700000,
00802201,
02700000,
00802203,
0030300022222030,
0040400011112010,
033333,
333333,
1110111011101110,
22,
6,
000000000000000000000000000000000000000000000008,
#GOGOEND
,
#BARLINEOFF
04,
#BARLINEON
#GOGOSTART
#BPMCHANGE 250
7,
,
#BPMCHANGE 260
,
8,
#BPMCHANGE 270
13,
600000000000000000000000000000000000000000000008,
#BPMCHANGE 280
03,
600000000000000000000000000000000000000000000008,
#GOGOEND
#BPMCHANGE 290
,
#GOGOSTART
#BPMCHANGE 300
500000000000000000000000000000000000000008000000,
#GOGOEND
#BPMCHANGE 122
#SCROLL 1.0245901639344261
2022
#BPMCHANGE 125
#SCROLL 1
0222,
2000202000200222,
#MEASURE 6/4
#BPMCHANGE 102
#SCROLL 1.2254901960784315
5
#BPMCHANGE 600
#SCROLL 0.20833333333333334
0
#BPMCHANGE 117
#SCROLL 1.0683760683760684
0
#BPMCHANGE 165
#SCROLL 0.7575757575757576
0
#BPMCHANGE 500
#SCROLL 0.25
00,
#MEASURE 4/4
#BPMCHANGE 45.1
#SCROLL 2.7716186252771617
000000000000
#BPMCHANGE 240
#SCROLL 0.5208333333333334
080580580580
#BPMCHANGE 268
#SCROLL 0.4664179104477612
580580580580580580580580,
#END

COURSE:Hard
LEVEL:6
BALLOON:8,18,30,10,13,7,7,28,28
SCOREINIT:3400
SCOREDIFF:0
#START
#BARLINEOFF
,
#BARLINEON
#BPMCHANGE 90
#SCROLL 1
100011100000100011100000,
100000001010100000100000200000000000000000000000,
#BARLINEOFF
#MEASURE 2/4
,
#BARLINEON
#MEASURE 4/4
#BPMCHANGE 160
#SCROLL 0.5625
20
#BPMCHANGE 149
#SCROLL 0.6040268456
2200
#BPMCHANGE 141
#SCROLL 0.6382978723
00,
#BARLINEOFF
#BPMCHANGE 118
#SCROLL 0.7627118644
202200
#BPMCHANGE 126
#SCROLL 0.7142857143
00,
2
#BPMCHANGE 114.5
#SCROLL 0.7860262009
0
#BPMCHANGE 232
#SCROLL 1.0086206897
0
#BPMCHANGE 234
#SCROLL 1
0,
#BARLINEON
#GOGOSTART
30030030,
30030030,
20020020,
20020020,
30030030,
30030030,
20020020,
#GOGOEND
2,
#GOGOSTART
30030030,
20020020,
30030030,
2000000010010010,
000000000000500000000000000000000000000000000008,
000000000000500000000000000000000000000000000008,
0700,
8,
#GOGOEND
#SCROLL 0.74786324786
12,
12,
12,
4,
100101,
100111,
100000000000000010000000500000000000000000000008,
#BPMCHANGE 230
#SCROLL 0.7608695652
,
#BPMCHANGE 234
#SCROLL 0.74786324786
100101,
100111,
100000000000000010000000500000000000000000000008,
#BPMCHANGE 232
#SCROLL 1.0086206896551724
00
#BPMCHANGE 234
#SCROLL 1
22,
00102201,
00002001,
00002201,
00002001,
00002201,
00102203,
00030003,
04403302,
,
04,
00300300,
30140010,
1002,
10110220,
00300300,
30030040,
9,
,
8,
,
13,
600000000000000000000000000000000000000000000008,
03,
600000000000000000000000000000000000000008000000,
7,
,
,
800
#BPMCHANGE 218
#SCROLL 1.073394495412844
0,
#MEASURE 3/4
#BPMCHANGE 165.7
#SCROLL 1
112,
112,
1,
2,
#BPMCHANGE 173.7
122,
122,
1,
20
#BPMCHANGE 183
#SCROLL 0.9491803279
0,
#BPMCHANGE 174
#SCROLL 1
111,
#BPMCHANGE 185
222,
#BPMCHANGE 195
111,
#BPMCHANGE 207
222,
#BPMCHANGE 217
111,
#BPMCHANGE 228
222,
#MEASURE 4/4
#BPMCHANGE 231
1122,
#BPMCHANGE 238
1122,
#BPMCHANGE 239
#SCROLL 1.00418410041841
30030030,
#BPMCHANGE 240
#SCROLL 1
30020010,
30030030,
30020010,
40040040,
40010010,
2,
3333,
#GOGOSTART
10201201,
01020205,
,
000000000008000000000000000000000000000000000000,
10201201,
01020205,
000000000000000000000000000000000000000000000008,
,
20120020,
0111,
20120020,
00002201,
01102201,
01102207,
,
8,
#GOGOEND
2,
#BARLINEOFF
,
#GOGOSTART
070000,
#BARLINEON
08,
10201201,
01020205,
000000000000000000000000000000000000000000000008,
,
200002000200,
200002000200,
20102201,
00002201,
01700000,
00802201,
01700000,
00802203,
03300003,
04400021,
070000,
,
,
8,
6,
000000000000000000000000000000000000000000000008,
#GOGOEND
,
#BARLINEOFF
04,
#BARLINEON
#GOGOSTART
#BPMCHANGE 250
9,
,
#BPMCHANGE 260
,
8,
#BPMCHANGE 270
03,
600000000000000000000000000000000000000000000008,
#BPMCHANGE 280
03,
600000000000000000000000000000000000000000000008,
#GOGOEND
#BPMCHANGE 290
,
#GOGOSTART
#BPMCHANGE 300
500000000000000000000000000000000008000000000000,
#GOGOEND
#BPMCHANGE 122
#SCROLL 1.0245901639344261
2022
#BPMCHANGE 125
#SCROLL 1
0222,
20220200,
#MEASURE 6/4
#BPMCHANGE 102
#SCROLL 1.2254901960784315
5
#BPMCHANGE 600
#SCROLL 0.20833333333333334
0
#BPMCHANGE 117
#SCROLL 1.0683760683760684
0
#BPMCHANGE 165
#SCROLL 0.7575757575757576
0
#BPMCHANGE 500
#SCROLL 0.25
00,
#MEASURE 4/4
#BPMCHANGE 45.1
#SCROLL 2.7716186252771617
000000
#BPMCHANGE 240
#SCROLL 0.5208333333333334
000000
#BPMCHANGE 268
#SCROLL 0.4664179104477612
000000000008,
#END

COURSE:Normal
LEVEL:6
BALLOON:5,6,6,12,18,7,8,5,5,17,17
SCOREINIT:4270
SCOREDIFF:0
#START
#BARLINEOFF
,
#BARLINEON
#BPMCHANGE 90
#SCROLL 1
11,
10111000,
#BARLINEOFF
#MEASURE 2/4
,
#BARLINEON
#MEASURE 4/4
#BPMCHANGE 160
#SCROLL 0.5625
2
#BPMCHANGE 149
#SCROLL 0.6040268456
00
#BPMCHANGE 141
#SCROLL 0.6382978723
0,
#BARLINEOFF
#BPMCHANGE 118
#SCROLL 0.7627118644
200
#BPMCHANGE 126
#SCROLL 0.7142857143
0,
0
#BPMCHANGE 114.5
#SCROLL 0.7860262009
0
#BPMCHANGE 232
#SCROLL 1.0086206897
0
#BPMCHANGE 234
#SCROLL 1
0,
#BARLINEON
#GOGOSTART
30030030,
30030030,
20020020,
2,
30030030,
30030030,
20020020,
#GOGOEND
,
#GOGOSTART
30030030,
20020020,
30030030,
2000000010010010,
000000000000500000000000000000000000000000000008,
000000000000500000000000000000000000000000000008,
0700,
8,
#GOGOEND
#SCROLL 0.74786324786
12,
12,
12,
4,
100101,
11,
7,
#BPMCHANGE 230
#SCROLL 0.7608695652
8,
#BPMCHANGE 234
#SCROLL 0.74786324786
100101,
11,
7,
#BPMCHANGE 232
#SCROLL 1.0086206896551724
8
#BPMCHANGE 234
#SCROLL 1
0,
00101101,
00002002,
00001101,
00002002,
00001101,
00101103,
00030003,
03303302,
,
04,
00300300,
40040040,
1,
10110110,
00300300,
30030030,
9,
,
8,
,
13,
600000000000000000000000000000000000000000000008,
03,
600000000000000000000000000000000000000008000000,
7,
,
,
800
#BPMCHANGE 218
#SCROLL 1.073394495412844
0,
#MEASURE 3/4
#BPMCHANGE 165.7
#SCROLL 1
111,
111,
1,
2,
#BPMCHANGE 173.7
111,
111,
1,
20
#BPMCHANGE 183
#SCROLL 0.9491803279
0,
#BPMCHANGE 174
#SCROLL 1
111,
#BPMCHANGE 185
1,
#BPMCHANGE 195
111,
#BPMCHANGE 207
1,
#BPMCHANGE 217
111,
#BPMCHANGE 228
1,
#MEASURE 4/4
#BPMCHANGE 231
1120,
#BPMCHANGE 238
1120,
#BPMCHANGE 239
#SCROLL 1.00418410041841
30030030,
#BPMCHANGE 240
#SCROLL 1
3,
30030030,
3,
40040040,
4,
2,
3333,
#GOGOSTART
10101101,
01010105,
,
000000000008000000000000000000000000000000000000,
10101101,
01010105,
000000000000000000000000000000000000000000000008,
,
20020020,
01,
20020020,
00001101,
00101101,
00101107,
,
8,
#GOGOEND
2,
#BARLINEOFF
,
#GOGOSTART
070000,
#BARLINEON
08,
10101101,
01010105,
000000000000000000000000000000000000000000000008,
,
200002000000,
200002000000,
20001101,
00001101,
0700,
00801101,
0700,
00801103,
03300003,
03300022,
070000,
,
,
8,
6,
000000000000000000000000000000000000000000000008,
#GOGOEND
,
#BARLINEOFF
03,
#BARLINEON
#GOGOSTART
#BPMCHANGE 250
9,
,
#BPMCHANGE 260
,
8,
#BPMCHANGE 270
03,
600000000000000000000000000000000000000000000008,
#BPMCHANGE 280
03,
600000000000000000000000000000000000000000000008,
#GOGOEND
#BPMCHANGE 290
,
#GOGOSTART
#BPMCHANGE 300
500000000000000000000000000000000008000000000000,
#GOGOEND
#BPMCHANGE 122
#SCROLL 1.0245901639344261
2022
#BPMCHANGE 125
#SCROLL 1
0020,
20220000,
#MEASURE 6/4
#BPMCHANGE 102
#SCROLL 1.2254901960784315
5
#BPMCHANGE 600
#SCROLL 0.20833333333333334
0
#BPMCHANGE 117
#SCROLL 1.0683760683760684
0
#BPMCHANGE 165
#SCROLL 0.7575757575757576
0
#BPMCHANGE 500
#SCROLL 0.25
00,
#MEASURE 4/4
#BPMCHANGE 45.1
#SCROLL 2.7716186252771617
000000
#BPMCHANGE 240
#SCROLL 0.5208333333333334
000000
#BPMCHANGE 268
#SCROLL 0.4664179104477612
000000000008,
#END

COURSE:Easy
LEVEL:4
BALLOON:4,5,5,3,10,15,6,6,4,4,14,15
SCOREINIT:6100
SCOREDIFF:0
#START
#BARLINEOFF
,
#BARLINEON
#BPMCHANGE 90
#SCROLL 1
11,
1110,
#BARLINEOFF
#MEASURE 2/4
,
#BARLINEON
#MEASURE 4/4
#BPMCHANGE 160
#SCROLL 0.5625
2
#BPMCHANGE 149
#SCROLL 0.6040268456
00
#BPMCHANGE 141
#SCROLL 0.6382978723
0,
#BARLINEOFF
#BPMCHANGE 118
#SCROLL 0.7627118644
200
#BPMCHANGE 126
#SCROLL 0.7142857143
0,
0
#BPMCHANGE 114.5
#SCROLL 0.7860262009
0
#BPMCHANGE 232
#SCROLL 1.0086206897
0
#BPMCHANGE 234
#SCROLL 1
0,
#BARLINEON
#GOGOSTART
30030000,
30030000,
20020000,
2,
30030000,
30030000,
20020000,
#GOGOEND
,
#GOGOSTART
30030000,
2,
30030000,
21,
000000000000500000000000000000000000000000000008,
000000000000500000000000000000000000000000000008,
0700,
8,
#GOGOEND
#SCROLL 0.74786324786
1,
1,
1,
4,
11,
1,
7,
#BPMCHANGE 230
#SCROLL 0.7608695652
8,
#BPMCHANGE 234
#SCROLL 0.74786324786
11,
1,
7,
#BPMCHANGE 232
#SCROLL 1.0086206896551724
8
#BPMCHANGE 234
#SCROLL 1
0,
00101001,
00001001,
00001001,
00001001,
00001001,
00001003,
00030007,
00000802,
,
,
00300300,
3,
1,
10100100,
00300300,
30030030,
9,
,
8,
,
13,
600000000000000000000000000000000000000000000008,
03,
600000000000000000000000000000000000000008000000,
7,
,
,
800
#BPMCHANGE 218
#SCROLL 1.073394495412844
0,
#MEASURE 3/4
#BPMCHANGE 165.7
#SCROLL 1
110,
110,
1,
2,
#BPMCHANGE 173.7
110,
110,
1,
20
#BPMCHANGE 183
#SCROLL 0.9491803279
0,
#BPMCHANGE 174
#SCROLL 1
110,
#BPMCHANGE 185
1,
#BPMCHANGE 195
110,
#BPMCHANGE 207
1,
#BPMCHANGE 217
110,
#BPMCHANGE 228
1,
#MEASURE 4/4
#BPMCHANGE 231
1100,
#BPMCHANGE 238
1100,
#BPMCHANGE 239
#SCROLL 1.00418410041841
30030000,
#BPMCHANGE 240
#SCROLL 1
3,
30030000,
3,
40040000,
4,
2,
3330,
#GOGOSTART
10101001,
01010105,
,
000000000008000000000000000000000000000000000000,
10101001,
01010105,
000000000000000000000000000000000000000000000008,
,
20020020,
,
20020020,
00001001,
00001001,
00001007,
,
8,
#GOGOEND
2,
#BARLINEOFF
,
#GOGOSTART
070000,
#BARLINEON
08,
10101001,
01010105,
000000000000000000000000000000000000000000000008,
,
2,
2,
20001001,
00001001,
0700,
00801001,
0700,
00801003,
00300003,
0300,
070000,
,
,
8,
6,
000000000000000000000000000000000000000000000008,
#GOGOEND
,
#BARLINEOFF
03,
#BARLINEON
#GOGOSTART
#BPMCHANGE 250
9,
,
#BPMCHANGE 260
,
8,
#BPMCHANGE 270
03,
600000000000000000000000000000000000000000000008,
#BPMCHANGE 280
03,
600000000000000000000000000000000000000000000008,
#GOGOEND
#BPMCHANGE 290
,
#GOGOSTART
#BPMCHANGE 300
500000000000000000000000000000000008000000000000,
#GOGOEND
#BPMCHANGE 122
#SCROLL 1.0245901639344261
2022
#BPMCHANGE 125
#SCROLL 1
0000,
20220000,
#MEASURE 6/4
#BPMCHANGE 102
#SCROLL 1.2254901960784315
5
#BPMCHANGE 600
#SCROLL 0.20833333333333334
0
#BPMCHANGE 117
#SCROLL 1.0683760683760684
0
#BPMCHANGE 165
#SCROLL 0.7575757575757576
0
#BPMCHANGE 500
#SCROLL 0.25
00,
#MEASURE 4/4
#BPMCHANGE 45.1
#SCROLL 2.7716186252771617
000000
#BPMCHANGE 240
#SCROLL 0.5208333333333334
000000
#BPMCHANGE 268
#SCROLL 0.4664179104477612
000000000008,
#END
