//TJADB Project
TITLE:Savage Love
TITLEJA:Savage Love
SUBTITLE:--Jason Derulo & Jawsh 685
SUBTITLEJA:
BPM:150
WAVE:Savage Love.ogg
OFFSET:-2.701
DEMOSTART:53.901

COURSE:Oni
LEVEL:6
BALLOON:13
SCOREINIT:3670
SCOREDIFF:0
#START
1220,
202202102100,
1220,
202202102200,
1220,
202202102100,
1220,
70000008,
100202100200,
102202102200,
100202100200,
102202100100,
102202100200,
102202102200,
102202100200,
102202101100,
202202102102,
102202102200,
102202102102,
100000002000200000002000500000000000000008000000,
102202102202,
102202102100,
102202102202,
102122100100,
100000200002,
100100202102,
100000200002,
102100201002,
100000200002,
100100202100,
500000000000000000000008000000000000000000400000,
,
100202100200,
202202102102,
100202100200,
202202102102,
100202100200,
202202102100,
4440,
20001220,
#GOGOSTART
122201100200,
102201102122,
102020100200,
102201102122,
102020100200,
102201102122,
122201100202,
102201102102,
3,
#GOGOEND
0,
#END

COURSE:Hard
LEVEL:4
BALLOON:10,12
SCOREINIT:5970
SCOREDIFF:0
#START
1220,
0212,
1220,
0212,
1220,
0212,
1220,
70000008,
1012,
1211,
1012,
1211,
1012,
0112,
1012,
0112,
2212,
100202100100,
1212,
100000000000200000002000500000000000000008000000,
1212,
100202100100,
1212,
1110,
100000200002,
1120,
100000200002,
000100201000,
100000200002,
1121,
500000000000000000000008000000000000000000400000,
,
1212,
200202100100,
1212,
200202100100,
1212,
200202100100,
9,
8,
#GOGOSTART
1212,
100202100202,
1212,
100202100202,
1212,
100202100202,
1212,
100202102100,
3,
#GOGOEND
0,
#END

COURSE:Normal
LEVEL:3
BALLOON:7,9
SCOREINIT:8990
SCOREDIFF:0
#START
1020,
0010,
1020,
0010,
1020,
0010,
1020,
70000008,
1010,
1011,
1010,
1011,
1020,
0112,
1020,
0112,
2010,
1011,
1010,
1040,
1020,
0112,
1020,
1110,
1020,
1120,
1020,
0120,
1020,
1120,
500000000000000000000008000000000000000000400000,
,
1110,
2022,
1110,
2022,
1110,
2022,
9,
8,
#GOGOSTART
1110,
1212,
1110,
1212,
1110,
1212,
1110,
1120,
3,
#GOGOEND
0,
#END

COURSE:Easy
LEVEL:2
BALLOON:4,7
SCOREINIT:12970
SCOREDIFF:0
#START
1,
0010,
1,
0020,
1,
0010,
1,
70000008,
1,
1010,
1,
1010,
1,
0110,
1,
0110,
2,
1010,
1,
1040,
1,
0110,
1,
1010,
1020,
0020,
1020,
0020,
1020,
0020,
500000000000000000000008000000000000000000400000,
,
1110,
2020,
1110,
2020,
1110,
2020,
9,
8,
#GOGOSTART
1110,
1010,
1110,
1020,
1110,
1010,
1110,
1020,
3,
#GOGOEND
0,
#END
