//TJADB Project
TITLE:Densha de Densha de GO! GO! GO! GC! -GMT Remix-
TITLEJA:電車で電車でGO!GO!GO!GC! -GMT remix-
SUBTITLE:--COSIO (ZUNTATA & TAITO)/Densha de GO! & Fantasy Zone
SUBTITLEJA:COSIO(ZUNTATA/TAITO)/沢城千春「電車でGO!」
BPM:134
WAVE:Densha de Densha de GO! GO! GO! GC! -GMT Remix-.ogg
OFFSET:-2.097
DEMOSTART:7.460

COURSE:Oni
LEVEL:8
BALLOON:2,6
SCOREINIT:580
SCOREDIFF:148
#START
,
2002002002002020,
1010120210070080,
1022102211201120,
1022102211201120,
1022102211201120,//6
#GOGOSTART
3000300012202020,//7
#GOGOEND
1022120211201120,
1022120211201120,
1022120211201120,//10
#GOGOSTART
3000300012202020,
#SCROLL 3
6,
000000000000000000000000000000000008000000000000,//13
#SCROLL 1
#GOGOEND
1101201011012000,
1101201011012000,
1020102011201120,
1212112210122010,
1101201011012000,
1101201011012010,
2010201120112010,
1212112210101110,
1020122110112210,
1020122110112210,
1020102011201120,
1122112211211000,
1020122110112022,
1020122110112022,
1101202011012010,
1101101211221000,
11111111,
1122112211112111,
2010202210022010,
2010201210012010,
2010202210022010,
2200220022002200,
2010202210122010,
2010201210212010,
2010202210122010,
2200220022002200,
#SCROLL 3
6,
000000000000000000000000000000000008000000000000,
#SCROLL 1
1122112222112211,
1122112222112211,
1122112222112020,//44
#GOGOSTART
3000300012202011,//45
#GOGOEND
1022102010221020,
1022120210212020,
1022120210212020,
#SCROLL 5
7008,//49
#SCROLL 1
#GOGOSTART
1022102211201120,
1022102211201120,
1022102211201120,
3000300012202020,
1022120211201120,
1022120211201120,
1122112212211210,
101010100000101010100000100200200000200000200000,
#SCROLL 3
6,
000000000000000000000008000000000000300300400300,//59
#GOGOEND
#END

COURSE:Hard
LEVEL:6
BALLOON:2,14,5
SCOREINIT:530
SCOREDIFF:160
#START
,
,
0000000000070080,
10101212,
10101212,
10101212,//6
#GOGOSTART
3333,//7
#GOGOEND
10101212,
10101212,
10101212,//10
#GOGOSTART
3333,
#SCROLL 3
6,
000000000000000000000008000000000000000000000000,//13
#SCROLL 1
#GOGOEND
1000100010111000,
1000100010111000,
11221122,
1020102010111000,
1000200010111000,
1000200010111010,
11221122,
1020102010111000,
1020100010111000,
1020100010111000,
12121122,
1020102010111000,
1020100010111000,
1020100010111000,
12121122,
1020102010111000,
9009,
8,
11221120,
1022201010202000,
11221120,
1022200010222000,
11221120,
1022201010202000,
11221120,
1022200010222000,
#SCROLL 3
6,
000000000000000000000008000000000000000000000000,
#SCROLL 1
1111100022222000,
1111100022222000,
1111100022222000,//44
#GOGOSTART
3333,//45
#GOGOEND
1022201022201000,
1022201022201000,
1022201022201000,
#SCROLL 5.55
78,//49
#SCROLL 1
#GOGOSTART
1011101020222020,
1011101020222020,
1011101020222020,
3333,
1011101020222020,
1011101020222020,
1011101020222020,
3333,
#SCROLL 3
6,
000000000000000000000008000000000000000000000300,//59
#SCROLL 1
#GOGOEND
,//351combo
,
#END

COURSE:Normal
LEVEL:5
BALLOON:11,4
#START
,
,
,
1122,
1122,
1122,//6
#GOGOSTART
3333,//7
#GOGOEND
1122,
1122,
1122,//10
#GOGOSTART
3333,
#SCROLL 3
6,
000000000000000000000000800000000000000000000000,//13
#SCROLL 1
#GOGOEND
1011,
1011,
11101110,
11102000,
1011,
1011,
11101110,
11102000,
10101110,
1110,
10101110,
22201000,
10101110,
1110,
10101110,
22201000,
9009,
8,
10102220,
1120,
10102220,
1212,
10102220,
1120,
10102220,
1212,
#SCROLL 3
6,
000000000000000000000000800000000000000000000000,
#SCROLL 1
00202220,
00202220,
00202220,//44
#GOGOSTART
3333,//45
#GOGOEND
00202220,
00202220,
00202220,
#SCROLL 5.55
78,//49
#SCROLL 1
#GOGOSTART
11102220,
11102220,
11102220,
3333,
11102220,
11102220,
11102220,
3333,
#SCROLL 3
6,
000000000000000000000008000000000000000000000300,//59
#SCROLL 1
#GOGOEND
,
,
#END

COURSE:Easy
LEVEL:4
BALLOON:7,3
#START
,
,
,
1100,
1100,
1100,//6
#GOGOSTART
3333,//7
#GOGOEND
0022,
0022,
0022,//10
#GOGOSTART
3333,
#SCROLL 3
6,
000000000000000000000008000000000000000000000000,//13
#SCROLL 1
#GOGOEND
11,
11,
1110,
1110,
11,
11,
1110,
1120,
11,
22,
1111,
33,
11,
22,
1111,
33,
9009,
8,
1200,
1200,
1200,
1110,
1200,
1200,
1200,
1110,
#SCROLL 3
6,
000000000000000000000008000000000000000000000000,
#SCROLL 1
1120,
1120,
1120,//44
#GOGOSTART
3333,//45
#GOGOEND
0202,
0202,
0202,
#SCROLL 5.55
78,//49
#SCROLL 1
#GOGOSTART
1122,
1122,
1122,
3333,
1122,
1122,
1122,
3333,
#SCROLL 3
6,
000000000000000000000008000000000000000000000300,//59
#SCROLL 1
#GOGOEND
,
,
#END
