//TJADB Project
TITLE:SORA-IV Bunpasong
TITLEJA:SORA-IV ブンパソング
SUBTITLE:--Ryuuichi Takada feat. Keiori Aihara
SUBTITLEJA:
BPM:130
WAVE:SORA-IV Bunpasong.ogg
OFFSET:-2.568
DEMOSTART:39.486

COURSE:Oni
LEVEL:8
BALLOON:3
SCOREINIT:570
SCOREDIFF:148
#START
000000000101,
000101000000,
000000000101,
#BPMCHANGE 130.45
000101000000,
#BPMCHANGE 130
101201101201,
202101200201,
200200201200,
112112122122,
101211201201,
211202100201,
200201200211,
221001211210,
200101201010,
100101200200,
200100200101,
100101200300,
300100202121,
100101200400,
300400301210,
100011130240,
101202101201,
202101202201,
200200201200,
112122112122,
101211201201,
211202101201,
200201200211,
202010000011202010201000,
300100202121,
100101200100,
100100200101,
100101100400,
300100202121,
100101200300,
400300101211,
100011220220,
101020101020112112122122,
#GOGOSTART
100200102121,
100101211200,
300400301102,
100111201011,
100201101210,
100101200300,
400000100010200000100011,
#BPMCHANGE 129.31
111211221221,
#BPMCHANGE 130
100102121102,
#BPMCHANGE 130.69
200000000000000000000000700008000000000020001000,
#GOGOEND
#BPMCHANGE 130
101212101211,
212101202201,
200201201211,
200010001000000000000000600000000000000800000000,
101202202122,
102101101202,
101101201122,
100100122120,
101401202122,
102102102202,
102102102122,
100020102210102010102020,
#BPMCHANGE 129.24
100200002020,
#BPMCHANGE 130
2022,
200200200002,
#BPMCHANGE 130.76
200002200222,
#BPMCHANGE 129.96
200200002020,
#BPMCHANGE 129.81
2022,
#BPMCHANGE 130.25
2022,
#BPMCHANGE 130
100000202220101010201010,
#GOGOSTART
100200102121,
100101211200,
300400301102,
100111201011,
100201101210,
100101200300,
400000100010200000101011,
100000100011100010202020,
#BPMCHANGE 129.27
101210122122,
#BPMCHANGE 130.74
100102122102,
#GOGOEND
#BPMCHANGE 130
100201201100,
111201202100,
3343,
#END

COURSE:Hard
LEVEL:7
BALLOON:8,8,3
SCOREINIT:810
SCOREDIFF:220
#START
000000000101,
000101000000,
000000000101,
#BPMCHANGE 130.45
000101000000,
#BPMCHANGE 130
101101100100,
101101100200,
2222,
500000000000000000000000000008000000000000000000,
101101100100,
101101100200,
200200200002,
500000000000000000000000000008000000000000000000,
100100101010,
12,
200200200002,
500000000000000000000000000008000000000000000000,
100100101010,
12,
200200202020,
200000110220,
101101100200,
101101100200,
2222,
700000080000,
101101100200,
101101100200,
200200200002,
700000080000,
100100101010,
12,
200200200002,
500000000000000000000000000008000000000000000000,
100100101010,
12,
200200202020,
200000110220,
111111700080,//38
#GOGOSTART
300100101010,
100111200100,
1120,
500000000000000000000008000000000000000000000000,
300100101010,
100111200100,
300002200300,
#BPMCHANGE 129.31
300002200300,
#BPMCHANGE 130
300102020100,
#BPMCHANGE 130.69
3,
#BPMCHANGE 130
#GOGOEND
101101100200,
101101100200,
200200200002,
500000000000000000000000000008000000000000000000,
300200002200,
100200002200,
300200002200,
100200002200,
300400202200,
100200202200,
300200202200,
102200202200,
#BPMCHANGE 129.24
300200002020,
#BPMCHANGE 130
2022,
22,
#BPMCHANGE 130.76
500000000000000000000008000000000000000000000000,
#BPMCHANGE 129.96
400200002020,
#BPMCHANGE 129.81
2022,
#BPMCHANGE 130.25
22,
#BPMCHANGE 130
2220,//68
#GOGOSTART
300200101010,
100111200100,
3120,
600000000000000000000008000000000000000000000000,
300200101010,
1123,
400002200300,
400002200300,
#BPMCHANGE 129.27
4340,
#BPMCHANGE 130.74
300102020100,//79
#BPMCHANGE 130
#GOGOEND
301101100200,
101101100200,
1234,
#END

COURSE:Normal
LEVEL:7
BALLOON:6,6
SCOREINIT:950
SCOREDIFF:293
#START
000000000101,
000101000000,
0001,
#BPMCHANGE 130.45
500000000000000000000000000008000000000000000000,
#BPMCHANGE 130
100001100100,
1110,
1111,
500000000000000000000000000008000000000000000000,
100001100100,
1110,
1111,
500000000000000000000000000008000000000000000000,
000100001010,
1002,
2220,
500000000000000000000000000008000000000000000000,
000100001010,
1002,
200200202020,
13,
100001100200,
1210,
1212,
70000800,
100001100200,
1210,
1212,
70000800,
000100001010,
1002,
2220,
500000000000000000000000000008000000000000000000,
000100001010,
1002,
200200202020,
1033,
,//38
#GOGOSTART
300100001010,
1021,
2120,
600000000000000000000008000000000000000000000000,
300100001010,
1021,
3003,
#BPMCHANGE 129.31
4340,
#BPMCHANGE 130
1,
#BPMCHANGE 130.69
,//48
#BPMCHANGE 130
#GOGOEND
100001100200,
1210,
1212,
500000000000000000000000000008000000000000000000,
1402,
0202,
3202,
0202,
3402,
0202,
3202,
1212,
#BPMCHANGE 129.24
3202,
#BPMCHANGE 130
2002,
2220,
#BPMCHANGE 130.76
500000000000000000000008000000000000000000000000,
#BPMCHANGE 129.96
400200002020,
#BPMCHANGE 129.81
22,
#BPMCHANGE 130.25
2002,
#BPMCHANGE 130
2220,//68
#GOGOSTART
300200001010,
1021,
2120,
600000000000000000000008000000000000000000000000,
300200001010,
1023,
4043,
4043,
#BPMCHANGE 129.27
4340,
#BPMCHANGE 130.74
,
#BPMCHANGE 130
#GOGOEND
100001100200,
1212,
1234,
#END

COURSE:Easy
LEVEL:4
BALLOON:6,6
SCOREINIT:580
SCOREDIFF:195
#START
0001,
0100,
0001,
#BPMCHANGE 130.45
500000000000000000000000000008000000000000000000,
#BPMCHANGE 130
11,
1110,
1111,
500000000000000000000000000008000000000000000000,
11,
1110,
1111,
500000000000000000000000000008000000000000000000,
0101,
1002,
22,
500000000000000000000000000008000000000000000000,
0101,
1002,
22,
13,
22,
2220,
2222,
70000800,
22,
2220,
2222,
70000800,
0101,
1002,
22,
500000000000000000000000000008000000000000000000,
0101,
1002,
22,
1033,
,//38
#GOGOSTART
3303,
3003,
3330,
600000000000000000000008000000000000000000000000,
3303,
3003,
3003,
#BPMCHANGE 129.31
3330,
#BPMCHANGE 130
1,
#BPMCHANGE 130.69
,//48
#BPMCHANGE 130
#GOGOEND
1110,
10011000,
1212,
500000000000000000000000000008000000000000000000,
02,
02,
02,
0022,
02,
02,
02,
0202,
#BPMCHANGE 129.24
0202,
#BPMCHANGE 130
2002,
2220,
#BPMCHANGE 130.76
500000000000000000000008000000000000000000000000,
#BPMCHANGE 129.96
0202,
#BPMCHANGE 129.81
2,
#BPMCHANGE 130.25
2220,
#BPMCHANGE 130
2220,//68
#GOGOSTART
3303,
3003,
3330,
600000000000000000000008000000000000000000000000,
1101,
1011,
3013,
3013,
#BPMCHANGE 129.27
3330,
#BPMCHANGE 130.74
,//79
#BPMCHANGE 130
#GOGOEND
1110,
10011000,
1133,
#END
