//TJADB Project
TITLE:Koigeba
TITLEJA:恋ゲバ
SUBTITLE:--
SUBTITLEJA:
BPM:202
WAVE:Koigeba.ogg
OFFSET:-1.639
DEMOSTART:50.341

COURSE:Oni
LEVEL:7
BALLOON:11,11
SCOREINIT:2530
SCOREDIFF:0
#START
10012212,
21021201,
22122102,
12212010,
31022202,
31022202,
31022202,
12121110,
0, //9
20101011,
12101012,
10101011,
12101212,
10101011,
12101012,
10201212,
500000000000000000000000000008000000100000100000, //17
20101011,
12101011,
2000111010001000,
2000111010001010,
20111110,
500000000000000000000000000000000008000000000000,
10221022,
1000100010111000, //25
30121020,
1110102010002000,
10121020,
1110202020002000,
10121020,
1110102010002000,
1110102010101000,
500000000000000000000000000008000000200000200000, //33
10121020,
1110102010001000,
2000111010001000,
2000111010001000,
31,
11,
10101110,
500000000000000000000000000008000000000000000000, //41
#GOGOSTART
33003300,
1110101000222000,
1110101000222000,
1110101000222000,
33003300,
1110101000001010,
1110101000222000,
1110101000222000, //49
33003300,
1110101000222000,
1110101000222000,
1110101000222000,
2220101020101010,
7008,
2220101020101010,
7008,
33033033,
04400033, //59
#GOGOEND
1011101010002011,
1011101010002011,
1011101010002011,
1020102011103000,
1010102011102020,
1010102011102020,
1010102011102020,
12123030,
3,
0, //69
#END

COURSE:Hard
LEVEL:5
BALLOON:8,8
SCOREINIT:3610
SCOREDIFF:0
#START
10010010,
21001001,
00102100,
10012010,
32,
32,
500000000000000000000000000000000008000000000000,
12121110,
0, //9
1111,
11101010,
1111,
11101011,
1111,
11101010,
10201210,
500000000000000000000000000008000000000000000000, //17
1111,
10101011,
2111,
20101011,
20101110,
500000000000000000000000000000000008000000000000,
1212,
10101110, //25
30111020,
11111020,
10111020,
10222020,
10111020,
11111020,
10111110,
500000000000000000000000000008000000000000000000, //33
10111020,
11111010,
20111010,
20111010,
31,
11,
1111,
500000000000000000000000000008000000000000000000, //41
#GOGOSTART
33003300,
10110020,
10110020,
10110220,
33003300,
10110011,
10110020,
10110220, //49
33003300,
10110020,
10110020,
10110220,
20112010,
7008,
20102011,
7008,
33033033,
04400033, //59
#GOGOEND
10111021,
10111021,
10111010,
11111020,
11021102,
11021102,
11021102,
12103030,
3,
0, //69
#END

COURSE:Normal
LEVEL:4
BALLOON:6,6
SCOREINIT:4860
SCOREDIFF:0
#START
10010010,
01001001,
00100100,
10010010,
32,
32,
500000000000000000000000000000000008000000000000,
10101110,
0, //9
1110,
1110,
1110,
11,
1110,
1110,
1211,
500000000000000000000000000008000000000000000000, //17
1110,
1110,
2011,
2011,
2011,
500000000000000000000000000000000008000000000000,
11,
10101110, //25
3112,
1110,
1112,
10222000,
1112,
1110,
10101110,
500000000000000000000000000008000000000000000000, //33
1112,
1110,
2111,
2111,
31,
11,
1111,
500000000000000000000000000008000000000000000000, //41
#GOGOSTART
33,
10110020,
10110020,
10110020,
33,
10110010,
10110020,
10110020, //49
33,
10110020,
10110020,
10110020,
2121,
7008,
2121,
7008,
30030030,
04000030, //59
#GOGOEND
10111020,
10111020,
10111010,
11111000,
11003300,
11003300,
11003300,
1133,
3,
0, //69
#END

COURSE:Easy
LEVEL:3
BALLOON:4,4
SCOREINIT:9410
SCOREDIFF:0
#START
1001,
01,
0100,
1001,
3,
3,
500000000000000000000000000008000000000000000000,
1111,
0, //9
1,
1,
1,
11,
1,
1,
11,
500000000000000000000000000008000000000000000000, //17
1,
1,
2,
2,
2,
500000000000000000000000000008000000000000000000,
11,
1110, //25
3,
1,
1,
11,
1,
1,
11,
500000000000000000000000000008000000000000000000, //33
1,
1,
2,
2,
3,
1,
1111,
500000000000000000000000000008000000000000000000, //41
#GOGOSTART
33,
10010000,
10010000,
10010000,
33,
10010000,
10010000,
10010000, //49
33,
10010000,
10010000,
10010000,
22,
7008,
22,
7008,
30030030,
04000000, //59
#GOGOEND
1110,
1110,
1111,
1110,
13,
13,
13,
1133,
3,
0, //69
#END
