//TJADB Project
TITLE:Habit
TITLEJA:Habit
SUBTITLE:--Movie "xxxHOLiC" Theme Song
SUBTITLEJA:映画『ホリック xxxHOLiC』主題歌
BPM:118
WAVE:Habit.ogg
OFFSET:-1.585
DEMOSTART:78.874 //shinuchi:
10590/6020/3670/2420/1520

COURSE:Edit
LEVEL:8
BALLOON:
SCOREINIT:500,1530
SCOREDIFF:128
#START
1021220201221201,
0121220201211201,
0121220201221201,
0121220201103011,
2202112211202021,
1020102202110201,
2211221120404001,
2022112210202001, //8
2211221101010020,
1220122101010020,
1122112211222220,
1222022220221220,
1122112101202011,
2211221201202000,
1122112101202011,
2211221120120020, //16
1121120211211202,
1121120212212000,
1121120211011210,
1121120212210122,
1122102210210122,
1122112211221120,
1122112210202211,
2211221122120020, //24
1011221122112021,
1221012210122011,
2211002211022012,
2110202112212020,
2201212220201022,
1021200221202100,
2201212220201020,
1021202221202100, //32
2201202220201020,
1001200221202000,
2201012220221220,
1101201121002012,
1001201121011110,
4000000020202110, //38
#GOGOSTART
1121102101201121,
1020102101202011,
1121112010210121,
1121101201202010,
1121102101201121,
1121112111210001,
1121102101211121,
1121112101202100, //46
1211201102112011,
1011201112112020,
1211201102112021,
1121112101202100,
1211201102112211,
1211201102112020,
1211201102112211,
1211202111222110,
#GOGOEND
4,
0, //56
#END

COURSE:Oni
LEVEL:7
BALLOON:41,41,40,20
SCOREINIT:800,2550
SCOREDIFF:205
#START
22,
22,
22,
2000201120101000,
1011102011101020,
1011102210102020,
1011102011101020,
1011102210202000, //8
500000000000000000000000000000000000000008000000,
1010102110212020,
500000000000000000000000000000000000000008000000,
11102120,
1110201122102020,
1120201122102010,
1110201122102020,
1120201122102010, //16
7,
000000000000000000000000000000000008000000000000,
7,
000000000000000000000000000000000008000000000000,
1110201120102020,
1110111011202020,
1110201120102020,
1110111011102000, //24
2022202022202020,
2022202022202020,
1102202011022020,
1010121210112010,
20222020,
2002000000200200,
20222020,
2002002022202000, //32
1000101110102000,
1000101110002000,
1000101110102000,
1122,
500000000000000000000008000000000000100100100000,
4000000010102100, //38
#GOGOSTART
1120101122101020,
1010221120102010,
1120112020111020,
1110201120102010,
1120101122101122,
1010221120102010,
7,
00000008, //46
1010101120112020,
1020101122101020,
1020101120112020,
7008,
1010101120112020,
1020101122101020,
1020101120112020,
1020101122102210,
#GOGOEND
4,
0, //56
#END

COURSE:Hard
LEVEL:5
BALLOON:32,32,18,15
SCOREINIT:910,3850
SCOREDIFF:253
#START
22,
22,
22,
20202110,
1000100011101000,
1000101110102000,
1000100011101000,
1000101110202000, //8
500000000000000000000000000000000000000008000000,
1000101110102000,
500000000000000000000000000000000000000008000000,
1022,
1010201110102000,
1010201110202000,
1010201110102000,
1010201110202000, //16
7,
000000000000000000000000000000000008000000000000,
7,
000000000000000000000000000000000008000000000000,
1000101110102000,
1000101011101000,
1000101110102000,
1000101011102000, //24
2000200022202000,
2000200022202000,
1001100011001000,
10200120,
20222020,
2002000000000000,
20222020,
2002000020000000, //32
1000101110101000,
1000101110002000,
1000101110102000,
1001,
500000000000000000000008000000000000000000000000,
4, //38
#GOGOSTART
1010101110102000,
1010201110002000,
1010111010102000,
1010201110202000,
1010101110102000,
1010201110102000,
9009,
8, //46
10102220,
1000101110102000,
10102220,
7008,
10102220,
1000101110102000,
10102220,
1000101110102000,
#GOGOEND
4,
0, //56
#END

COURSE:Normal
LEVEL:4
BALLOON:21,21,12,11
SCOREINIT:1070,6310
SCOREDIFF:375
#START
2,
2,
2,
2220,
10101110,
1120,
10101110,
10102220, //8
500000000000000000000000000000000000000008000000,
1112,
500000000000000000000000000000000000000008000000,
12,
11101000,
11102000,
11101000,
11102020, //16
7,
000000000000000000000000000000000008000000000000,
7,
000000000000000000000000000000000008000000000000,
1112,
10101110,
1112,
1120, //24
20202220,
20202220,
1110,
1,
22,
2,
22,
2, //32
11,
10111000,
1120,
1,
1,
4, //38
#GOGOSTART
11101020,
11102020,
11101020,
11102020,
11101020,
11102020,
9009,
8, //46
1122,
10111020,
1122,
7008,
1122,
10111020,
1122,
10111020,
#GOGOEND
4,
0, //56
#END

COURSE:Easy
LEVEL:2
BALLOON:15,15,10,8
SCOREINIT:1100,11170
SCOREDIFF:688
#START
0,
0,
0,
22,
11,
1,
11,
12, //8
500000000000000000000000000008000000000000000000,
11,
500000000000000000000000000008000000000000000000,
12,
1100,
1100,
1100,
1110, //16
7,
00000800,
7,
00000800,
11,
1110,
12,
1110, //24
1110,
11,
12,
1,
22,
2,
22,
2, //32
11,
1110,
11,
1,
1,
4, //38
#GOGOSTART
1110,
1100,
1110,
1100,
1110,
12,
9009,
8, //46
11,
1110,
11,
7008,
11,
1110,
11,
1110,
#GOGOEND
4,
0, //56
#END
