//TJADB Project
TITLE:Singing Rabbit Swinging
TITLEJA:詩謳兎揺蕩兎
SUBTITLE:--Rissyuu feat. Choco
SUBTITLEJA:--立秋 feat. ちょこ
BPM:150
WAVE:Singing Rabbit Swinging.ogg
SONGVOL:100
SEVOL:100
OFFSET:-1.767
DEMOSTART:48.167

COURSE:Oni
LEVEL:10
BALLOON:2,2
SCOREINIT:550,1460
SCOREDIFF:138
#START
100
#SCROLL 1.1
200
#SCROLL 1.2
100
#SCROLL 1.3
200
#SCROLL 1.4
100
#SCROLL 1.5
2,
#SCROLL 1.0
00
#SCROLL 1.6
100
#SCROLL 1.7
200
#SCROLL 1.8
100
#SCROLL 1.9
200
#SCROLL 2.0
30,
#GOGOSTART
#SCROLL 1.0
1001202012112020,
1001202012112220,
1001202012112020,
#SCROLL 1.5
500008000
#SCROLL 2.0
500008000
#SCROLL 1.25
508000
#SCROLL 1.5
500000008000
#SCROLL 2.0
500008000000,
#SCROLL 1.0
1001202012112020,
1001202012112220,
1001202012112020,
1021202212112220,
100
#SCROLL 1.2
200
#SCROLL 1.4
100
#SCROLL 1.6
200
#SCROLL 1.8
10
#SCROLL 2.0
40,
#GOGOEND
#SCROLL 1.0
100000000000200000101010200000100000200200200000,
2020102220101020,
100000000000200000202020200000200200200000100000,
2002201220112122,
100000000000200000101010200000100000200200200100,
2020102220101020,
1002202012201002,
2020102220112122,
100000000000102020100000000000100200200000200000,
1021201220112220,
100000202020200100200200000200200100200000200000,
1021201220222020,
100000000000102020100000000000100200200000200000,
1021201220112220,
100000202020200100200200000200100100200000200000,
1021201220222020,
100
#SCROLL 1.1
200
#SCROLL 1.2
100
#SCROLL 1.3
200
#SCROLL 1.4
100
#SCROLL 1.5
2,
#SCROLL 1.0
00
#SCROLL 1.6
111
#SCROLL 1.7
222
#SCROLL 1.8
111
#SCROLL 1.9
222
#SCROLL 2.0
30,
#SCROLL 1.0
1001202010112020,
1001202010112220,
1001
#SCROLL 1.25
2020
#SCROLL 1.0
1011
#SCROLL 1.25
2020,
#SCROLL 1.0
1001
#SCROLL 1.25
2020
#SCROLL 1.0
1010
#SCROLL 1.25
2220,
#SCROLL 1.0
1001202010112020,
1001202010112220,
1001
#SCROLL 1.25
2020
#SCROLL 1.0
1011
#SCROLL 1.25
2020,
#SCROLL 1.5
500008000
#SCROLL 2.0
500008000
#SCROLL 1.25
508000
#SCROLL 1.5
500000008000
#SCROLL 2.0
500008000000,
#SCROLL 1.0
1001
#SCROLL 1.25
2020
#SCROLL 1.0
1001
#SCROLL 1.25
2020,
#SCROLL 1.0
1001
#SCROLL 1.25
2020
#SCROLL 1.0
1010
#SCROLL 1.25
2220,
#SCROLL 1.0
1001
#SCROLL 1.25
20
#SCROLL 1.5
40
#SCROLL 1.0
1001
#SCROLL 1.25
20
#SCROLL 1.5
40,
#SCROLL 1.0
1001
#SCROLL 1.25
20
#SCROLL 1.5
40
#SCROLL 1.0
1010
#SCROLL 1.25
22
#SCROLL 1.5
40,
#SCROLL 1.0
1001
#SCROLL 1.25
2020
#SCROLL 1.0
1001
#SCROLL 1.25
2020,
#SCROLL 1.0
1001
#SCROLL 1.25
2020
#SCROLL 1.0
1010
#SCROLL 1.25
2220,
#SCROLL 1.0
1001
#SCROLL 1.25
20
#SCROLL 1.5
40
#SCROLL 1.0
1001
#SCROLL 1.25
20
#SCROLL 1.5
40,
#SCROLL 1.5
500008000
#SCROLL 2.0
500008000
#SCROLL 1.25
508000
#SCROLL 1.5
500000008000
#SCROLL 2.0
500008000000,
#SCROLL 1.0
1001202010012020,
100
#SCROLL 1.2
200
#SCROLL 1.4
100
#SCROLL 1.6
200
#SCROLL 1.8
10
#SCROLL 2.0
40,
#SCROLL 1.0
10002002,
20022020,
2,
200000000200200222200200,
20022002,
20022022,
2,
#MEASURE 29/32
2000202000202000
#BPMCHANGE 37.5
#SCROLL 0.5
4
#BPMCHANGE 150
#SCROLL 1.0
202010202000,
#MEASURE 4/4
200200200
#SCROLL 1.2
2002002,
#SCROLL 1.0
00
#SCROLL 1.4
200200200
#SCROLL 1.6
20020,
#SCROLL 1.0
200000000200101010200000000200000100200000000200,
01
#SCROLL 1.2
211
#SCROLL 1.4
211
#SCROLL 1.6
211
#SCROLL 1.8
211
#SCROLL 2.0
40,
#SCROLL 1.0
1001202012120220,
100100201010100001010100000100100100700000080000,
#GOGOSTART
1021
#SCROLL 1.25
2020
#SCROLL 1.0
1011
#SCROLL 1.25
2020,
#SCROLL 1.0
100000200100
#SCROLL 1.25
200000200000
#SCROLL 1.0
102020100100
#SCROLL 1.25
200200200000,
#SCROLL 1.0
1021
#SCROLL 1.25
2020
#SCROLL 1.0
1011
#SCROLL 1.25
2020,
#SCROLL 1.0
1021
#SCROLL 1.25
2020
#SCROLL 1.0
1211
#SCROLL 1.25
2220,
#SCROLL 1.0
1021
#SCROLL 1.25
2020
#SCROLL 1.0
1011
#SCROLL 1.25
2020,
#SCROLL 1.5
500008000
#SCROLL 2.0
500008000
#SCROLL 1.25
508000
#SCROLL 1.5
500000008000
#SCROLL 2.0
500008000000,
#SCROLL 1.5
1021
#SCROLL 1.875
2020
#SCROLL 1.5
1011
#SCROLL 1.875
2020,
#SCROLL 1.5
1021
#SCROLL 1.875
2020
#SCROLL 1.5
1211
#SCROLL 1.875
2220,
#SCROLL 1.5
1021
#SCROLL 1.875
2020
#SCROLL 1.5
1011
#SCROLL 1.875
2020,
#SCROLL 1.5
100000200100
#SCROLL 1.875
200000200000
#SCROLL 1.5
102020100100
#SCROLL 1.875
200200200000,
#SCROLL 1.5
1021
#SCROLL 1.875
2020
#SCROLL 1.5
1011
#SCROLL 1.875
2020,
#SCROLL 1.5
1021
#SCROLL 1.875
2020
#SCROLL 1.5
1211
#SCROLL 1.875
2220,
#SCROLL 1.5
1021
#SCROLL 1.875
2020
#SCROLL 1.5
1011
#SCROLL 1.875
2020,
#SCROLL 1.5
500008000
#SCROLL 2.0
500008000
#SCROLL 1.25
508000
#SCROLL 1.5
500000008000
#SCROLL 2.0
500008000000,
#GOGOEND
#SCROLL 1.0
1021201020121020,
1021201020121020,
100
#SCROLL 1.2
200
#SCROLL 1.4
100
#SCROLL 1.6
200
#SCROLL 1.8
10
#SCROLL 2.0
40,
#SCROLL 1.0
100000
#SCROLL 1.4
200000
#SCROLL 1.8
100000
#SCROLL 2.2
200000
#SCROLL 2.6
100
#SCROLL 3.0
100
#SCROLL 3.4
200
#GOGOSTART
#SCROLL 3.8
700000008000000,
#GOGOEND
#SCROLL 1.0
,
,
,
#END

COURSE:Hard
LEVEL:8
BALLOON:9,11,9,11,12
SCOREINIT:680,2520
SCOREDIFF:178
#START
1002001002001002,
07000008,
#GOGOSTART
1001202010012020,
1001202010102000,
1001202010012020,
#SCROLL 1.5
500008000
#SCROLL 2.0
500008000
#SCROLL 1.25
508000
#SCROLL 1.5
500000008000
#SCROLL 2.0
500008000000,
#SCROLL 1.0
1001202010012020,
1001202010102000,
1001202010012020,
1001202020201000,
70000008,
#GOGOEND
10002202,
20202210,
10020010,
10000220,
10002202,
20202210,
10022050,
000000000000000000000000000000000008000000000000,
10020210,
10202210,
10020010,
10000220,
10020010,
12202010,
10020210,
10020020,
1002001002001002,
07000008,
1001202010012020,
1001202010102000,
1001202010012020,
1001202020201000,
1001202010012020,
1001202010102000,
1001202010012020,
#SCROLL 1.5
500008000
#SCROLL 2.0
500008000
#SCROLL 1.25
508000
#SCROLL 1.5
500000008000
#SCROLL 2.0
500008000000,
#SCROLL 1.0
1001202010012020,
1001202010102000,
1001204010012040,
1001204020201000,
1001202010012020,
1001202010102000,
1001204010012040,
#SCROLL 1.5
500008000
#SCROLL 2.0
500008000
#SCROLL 1.25
508000
#SCROLL 1.5
500000008000
#SCROLL 2.0
500008000000,
#SCROLL 1.0
1001202010012020,
70000008,
22,
20022020,
2,
20022020,
22,
20022020,
2,
#MEASURE 29/32
2000000000000000
#BPMCHANGE 37.5
#SCROLL 0.5
4
#BPMCHANGE 150
#SCROLL 1.0
000020000000,
#MEASURE 4/4
200200200
#SCROLL 1.2
2002002,
#SCROLL 1.0
00
#SCROLL 1.4
200200200
#SCROLL 1.6
20020,
#SCROLL 1.0
9,
8,
10011001,
2004003003000000,
#GOGOSTART
1001204010012040,
1001204020201000,
1001202010012020,
1001202010102000,
1001204010012040,
#SCROLL 1.5
500008000
#SCROLL 2.0
500008000
#SCROLL 1.25
508000
#SCROLL 1.5
500000008000
#SCROLL 2.0
500008000000,
#SCROLL 1.5
1001202010012020,
1001202010102000,
1001204010012040,
1001204020201000,
1001202010012020,
1001202010102000,
1001204010012040,
500008000
#SCROLL 2.0
500008000
#SCROLL 1.25
508000
#SCROLL 1.5
500000008000
#SCROLL 2.0
500008000000,
#GOGOEND
#SCROLL 1.0
1001202010012020,
1001202010012020,
1002001002001020,
100000
#SCROLL 1.4
100000
#SCROLL 1.8
100000
#SCROLL 2.2
100000
#SCROLL 2.6
500008000
#GOGOSTART
000000000000000,
#GOGOEND
#SCROLL 1.0
,
,
,
#END

COURSE:Normal
LEVEL:6
BALLOON:7,8,7,8,9
SCOREINIT:900,4470
SCOREDIFF:273
#START
10010010,
07000008,
#GOGOSTART
1212,
10201110,
1212,
#SCROLL 1.5
500008000
#SCROLL 2.0
500008000
#SCROLL 1.25
508000
#SCROLL 1.5
500008000000
#SCROLL 2.0
000000000000,
#SCROLL 1.0
1212,
10201110,
1212,
10202220,
70000008,
#GOGOEND
2,
2022,
20020000,
2,
2,
2022,
20020050,
000000000000000000000000000000000008000000000000,
2002,
2022,
20020020,
2,
2002,
2022,
20020020,
2002,
10010010,
07000008,
1212,
10201110,
1212,
10202220,
1212,
10201110,
1212,
#SCROLL 1.5
500008000
#SCROLL 2.0
500008000
#SCROLL 1.25
508000
#SCROLL 1.5
500008000000
#SCROLL 2.0
000000000000,
#SCROLL 1.0
1212,
10201110,
1212,
10202220,
1212,
10201110,
1212,
#SCROLL 1.5
500008000
#SCROLL 2.0
500008000
#SCROLL 1.25
508000
#SCROLL 1.5
500008000000
#SCROLL 2.0
000000000000,
#SCROLL 1.0
1212,
70000008,
2,
22,
2,
2,
2,
22,
2,
#MEASURE 29/32
2000000000000000
#BPMCHANGE 37.5
#SCROLL 0.5
4
#BPMCHANGE 150
#SCROLL 1.0
000000000000,
#MEASURE 4/4
200000000
#SCROLL 1.2
2000000,
#SCROLL 1.0
00
#SCROLL 1.4
200000000
#SCROLL 1.6
20000,
#SCROLL 1.0
9,
8,
1,
2004004000000000,
#GOGOSTART
1212,
10202220,
1212,
10201110,
1212,
#SCROLL 1.5
500008000
#SCROLL 2.0
500008000
#SCROLL 1.25
508000
#SCROLL 1.5
500008000000
#SCROLL 2.0
000000000000,
#SCROLL 1.5
1212,
10201110,
1212,
10202220,
1212,
10201110,
1212,
500008000
#SCROLL 2.0
500008000
#SCROLL 1.25
508000
#SCROLL 1.5
500008000000
#SCROLL 2.0
000000000000,
#GOGOEND
#SCROLL 1.0
1212,
1212,
10010010,
100000
#SCROLL 1.4
100000
#SCROLL 1.8
100000
#SCROLL 2.2
100000
#SCROLL 2.6
500008000
#GOGOSTART
000000000000000,
#GOGOEND
#SCROLL 1.0
,
,
,
#END

COURSE:Easy
LEVEL:4
BALLOON:4,5,4,5,8
SCOREINIT:710,6380
SCOREDIFF:240
#START
10010010,
07000008,
#GOGOSTART
1011,
1011,
1011,
#SCROLL 1.5
500008000
#SCROLL 2.0
500008000
#SCROLL 1.25
508000
#SCROLL 1.5
500008000000
#SCROLL 2.0
000000000000,
#SCROLL 1.0
1011,
1011,
1011,
1110,
70000008,
#GOGOEND
2,
22,
2,
2,
2,
22,
2005,
000000000000000000000008000000000000000000000000,
2002,
22,
2002,
22,
2002,
22,
2002,
2,
10010010,
07000008,
1011,
1011,
1012,
1012,
1011,
1011,
1012,
#SCROLL 1.5
500008000
#SCROLL 2.0
500008000
#SCROLL 1.25
508000
#SCROLL 1.5
500008000000
#SCROLL 2.0
000000000000,
#SCROLL 1.0
1011,
1011,
1012,
1012,
1011,
1011,
1012,
#SCROLL 1.5
500008000
#SCROLL 2.0
500008000
#SCROLL 1.25
508000
#SCROLL 1.5
500008000000
#SCROLL 2.0
000000000000,
#SCROLL 1.0
1011,
70000008,
2,
2,
2,
,
2,
2,
2,
#MEASURE 29/32
2000000000000000
#BPMCHANGE 37.5
#SCROLL 0.5
4
#BPMCHANGE 150
#SCROLL 1.0
000000000000,
#MEASURE 4/4
200000000
#SCROLL 1.2
2000000,
#SCROLL 1.0
00
#SCROLL 1.4
200000000
#SCROLL 1.6
20000,
#SCROLL 1.0
9,
8,
1,
20040000,
#GOGOSTART
1012,
1012,
1011,
1011,
1012,
#SCROLL 1.5
500008000
#SCROLL 2.0
500008000
#SCROLL 1.25
508000
#SCROLL 1.5
500008000000
#SCROLL 2.0
000000000000,
#SCROLL 1.5
1011,
1011,
1012,
1012,
1011,
1011,
1012,
500008000
#SCROLL 2.0
500008000
#SCROLL 1.25
508000
#SCROLL 1.5
500008000000
#SCROLL 2.0
000000000000,
#GOGOEND
#SCROLL 1.0
11,
11,
10010010,
100000000000
#SCROLL 1.8
100000000000
#SCROLL 2.6
500008000
#GOGOSTART
000000000000000,
#GOGOEND
#SCROLL 1.0
,
,
,
#END
