TITLE:Suriken Runner
TITLEJA:スリケンランナー
SUBTITLE:--Ninja Never DieS!
SUBTITLEJA:Ninja Never DieS!
BPM:185
WAVE:Suriken Runner.ogg
OFFSET:-0.836
DEMOSTART:34.078

COURSE:Oni
LEVEL:9
BALLOON:48,14
SCOREINIT:
SCOREDIFF:
#START
30000003,
34000030,
3000001110000011,
2002002002004000,
30201212,
30201212,
3003004004003003,
000000400000000400000000300000300000200020002000,
2,
2022202220221000,
#GOGOSTART
3002102210211022,
1021102012211020,
3002102210211022,
#GOGOEND
100000200200000000200000100000202020200000200000,
#GOGOSTART
3000102210211022,
1021102012211020,
33004400,
1111010120203040,
#GOGOEND
1010000010220222,
1010220210220222,
1010000010220222,
1010222210210220,
1000201110002011,
1002102011111020,
3003004000400030,
0022201110004000,
#GOGOSTART
1012102011211020,
1022122010212010,
1120122011202030,
0011202210004000,
1012102011211020,
1022122010212010,
1220112012202030,
0021201210004000,
#GOGOEND
#SCROLL 1.33
33403334,
03333403,
33334033,
33334030,
#SCROLL 2.48
7,
,
00000008,
#SCROLL 1
111111100400,
#GOGOSTART
1011201111201120,
1021102011211020,
#GOGOEND
4022102210222210,
2211222211104000,
#GOGOSTART
111201201102,
102102111202,
#GOGOEND
4010122210210212,
5000000000000000000000000000000000000080000000000000,
12,
1120,
12,
1120,
1000201110002011,
1002102011111020,
334433,
70000008,
#GOGOSTART
2220,
2220,
2222,
2220,
30222222,
30222222,
3003003000400040,
600000000000000000000000000000000000000000080000,
#GOGOEND
,
0004,
#GOGOSTART
1012102011211020,
1022122010212010,
1120122011202030,
0011202210004000,
1012102011211020,
1022122010212010,
1220112012202110,
#GOGOEND
2012102120004000,
#GOGOSTART
1012112011211020,
1022122012212010,
1120122011202030,
0011202210004022,
1012122012211020,
1021122011212010,
1212112112121120,
0021201210004000,
#GOGOEND
#SCROLL 1.33
33403334,
03333403,
33334033,
300000300000300000300000600008000000
#SCROLL 1.5
400000400000,
#GOGOSTART
30444304,
44430444,
44304444,
#GOGOEND
443,
#BARLINEOFF
0
#GOGOSTART
#SCROLL 2.48
400,
,
#END

COURSE:Hard
LEVEL:7
BALLOON:35,9,9
SCOREINIT:
SCOREDIFF:
#START
30000003,
33000030,
30033003,
2002002002004000,
30101212,
30101212,
3003003003003003,
000000300000000300000000600000000000000008000000,
2,
0001,
#GOGOSTART
3000200010111020,
1000102011102000,
3000200010111020,
#GOGOEND
1000000020222000,
#GOGOSTART
3000200010111020,
1000102011102000,
33004400,
600000000000000000000000000000000008000000000000,
#GOGOEND
1010000020220000,
1010000020220020,
1010000020220000,
1010000020220020,
10211021,
1002102010002020,
3003004000400030,
04433040,
#GOGOSTART
1011102010101000,
1011102010102000,
1020111010200030,
03344000,
1011102010101000,
1011102010102000,
1020111010202030,
04433000,
#GOGOEND
33403334,
03333403,
33334033,
33334000,
9,
,
0009,
8,
#GOGOSTART
1011100010201020,
1011102010201020,
#GOGOEND
1000202220002010,
0022202220004000,
#GOGOSTART
1122,
100200111101,
#GOGOEND
1000202220020000,
70000008,
12,
1120,
12,
1120,
10211021,
1002102010002020,
333333,
70000008,
#GOGOSTART
2220,
2220,
2222,
2220,
30202220,
30202220,
6,
000000000000000000000000000000000000000000080000,
#GOGOEND
,
0004,
#GOGOSTART
1011102010101000,
1011102010102000,
1020111010200030,
03344000,
1011102010101000,
1011102010102000,
1020111010201000,
#GOGOEND
4444,
#GOGOSTART
1011102010101000,
2022201020202000,
1020111010200030,
03344000,
1011102010201000,
2022201020102000,
1020111010202030,
04433000,
#GOGOEND
33403334,
03333403,
33334033,
33334044,
#GOGOSTART
30444304,
44430444,
44304444,
#GOGOEND
443,
0
#GOGOSTART
400,
,
#END

COURSE:Normal
LEVEL:7
BALLOON:11,21,5,13
SCOREINIT:
SCOREDIFF:
#START
3,
3003,
33,
4,
10101210,
10101210,
5,
000000000000000000000000000000000008000000000000,
2,
,
#GOGOSTART
30201012,
10121000,
30201012,
#GOGOEND
12,
#GOGOSTART
30201012,
10121000,
33003300,
600000000000000000000000000000000008000000000000,
#GOGOEND
11002000,
11002000,
11002000,
11002000,
10011001,
10121022,
7,
08,
#GOGOSTART
10121010,
10121020,
12101203,
03333000,
10121010,
10121020,
12101203,
04443000,
#GOGOEND
33303333,
03333303,
33333033,
33333000,
9,
,
0009,
8,
#GOGOSTART
10201212,
10201212,
#GOGOEND
10202001,
0220,
#GOGOSTART
1120,
100100101100,
#GOGOEND
2220,
70000008,
12,
1120,
12,
1120,
10011001,
10121022,
7,
0008,
#GOGOSTART
2220,
2220,
2222,
2220,
3,
3,
6,
000000000000000000000000000000000000000000080000,
#GOGOEND
,
0004,
#GOGOSTART
10121010,
10121020,
12101203,
03333000,
10121010,
10121020,
12101210,
#GOGOEND
4444,
#GOGOSTART
10121010,
20212020,
12101203,
03333000,
12121210,
21212120,
12121203,
04443000,
#GOGOEND
33303333,
03333303,
33333033,
33333044,
#GOGOSTART
40444404,
44440444,
44404444,
#GOGOEND
444,
0
#GOGOSTART
400,
,
#END

COURSE:Easy
LEVEL:4
BALLOON:9,17,4,11,4
SCOREINIT:
SCOREDIFF:
#START
3,
3,
33,
4,
1110,
1110,
5,
000000000000000000000000000008000000000000000000,
2,
,
#GOGOSTART
3011,
1110,
3011,
#GOGOEND
12,
#GOGOSTART
3011,
1110,
33,
600000000000000000000000000008000000000000000000,
#GOGOEND
12,
02,
12,
02,
11,
1110,
7,
08,
#GOGOSTART
1111,
1120,
10101003,
0330,
1111,
1120,
10101003,
0440,
#GOGOEND
3033,
0330,
3330,
3330,
9,
,
0009,
8,
#GOGOSTART
1110,
1111,
#GOGOEND
12,
02,
#GOGOSTART
1110,
1120,
#GOGOEND
12,
70000008,
12,
1120,
12,
1120,
11,
1110,
7,
0008,
#GOGOSTART
22,
2220,
22,
2220,
3,
3,
6,
000000000000000000000000000000000000000000080000,
#GOGOEND
,
,
#GOGOSTART
1111,
1120,
10101003,
0330,
1111,
1120,
1111,
#GOGOEND
70000008,
#GOGOSTART
1111,
2220,
10101003,
0330,
1111,
2222,
10101003,
0440,
#GOGOEND
3033,
0330,
3330,
3334,
#GOGOSTART
0440,
4404,
4404,
#GOGOEND
600000000000000000000000000000000000000000080000,
0
#GOGOSTART
400,
,
#END
