//TJADB Project
TITLE:Ahoy!! Warera Houshou Kaizokudan☆
TITLEJA:Ahoy!! 我ら宝鐘海賊団☆
SUBTITLE:--Houshou Marine
SUBTITLEJA:--宝鐘マリン
BPM:170
WAVE:Ahoy!! Warera Houshou Kaizokudan.ogg
OFFSET:-0.649
DEMOSTART:30.591 //Shinuchi:
7240/4240/2870/2100

COURSE:Oni
LEVEL:7
BALLOON:4,2,8,35
SCOREINIT:670,2310
SCOREDIFF:175
#START
#BARLINEOFF
#MEASURE 2/4
0,
#BARLINEON
#MEASURE 4/4
33,
33,
33,
1444, //5
111101200200,
111101200200,
100201100201,
100201100201,
500000000000000000000000000000000000000000000008,
0000200020020020,
1000002010000011,
1000000000000022,
200000000000200000000000
#SCROLL 1.5
#GOGOSTART
700000000008000000000000, //14
#SCROLL 1
1010201110102011,
1010201110202000,
1010201110102011,
1011101110202000,
1010201110102011,
1010201120202000,
#GOGOEND
2022,
200200200200200000700000800000000000100000001000, //22
100000200020200000100100,
10211122,
11210112,
100202200101,
100000200020200000100100,
10211122,
11210112,
3003004030002020, //30
1010200011102020,
10210122,
1010200011102020,
1000201020002011,
11210121,
0011200010102010,
0022202020002000, //37
10210102,
01012020,
10210102,
01012020,
#SCROLL 0.75
22220202,
02022020,
42220202,
1001010110020202,
202222200000,
#SCROLL 1
70008112, //47
#GOGOSTART
3000201110112010,
1010202000222020,
3344,
1110102000201010,
1000201000112020,
1010201000222020,
1011200020221000,
1000201000222000, //55
3000201110112010,
1010202000222020,
3344,
1110102000222000,
1110201000102000,
1110201000102011,
11201122,
1010201000111020,
1011101110111011,
500000000000000000000000000000000008000000000000, //65
#GOGOEND
3000200020111020,
0011101010222060,
0,
000000000000000000000000000000000008000000000000,
000111400111,
400111400222,
4,
#SCROLL 1.5
#GOGOSTART
7, //73
0,
0800,
#GOGOEND
#BARLINEOFF
#SCROLL 1
0,
0, //77
#END

COURSE:Hard
LEVEL:5
BALLOON:10,3,6,25
SCOREINIT:700,3260
SCOREDIFF:188
#START
#BARLINEOFF
#MEASURE 2/4
0,
#BARLINEON
#MEASURE 4/4
33,
33,
33,
0444, //5
101100200200,
101100200200,
1212,
1212,
500000000000000000000000000000000000000000000008,
0220,
9009,
8,
200000000000200000000000
#GOGOSTART
#SCROLL 1.5
700000000008000000000000, //14
#SCROLL 1
11201120,
11211120,
11201120,
11211220,
11201120,
11212220,
#GOGOEND
2022,
22202010, //22
1221,
10210101,
11210112,
1221,
1221,
10210122,
11210112,
3003003030002000, //30
11201122,
10210120,
11201122,
10210020,
11210121,
01201125,
000000000000000000000000000000000008000000000000, //37
10200202,
01002020,
10200202,
01002020,
#SCROLL 0.75
20020002,
00022000,
40020002,
12,
2220,
#SCROLL 1
70008110, //47
#GOGOSTART
30210121,
11220220,
3344,
10120211,
10210122,
11210222,
1122,
10210220, //55
30210121,
11220220,
3344,
10120020,
10210120,
10210120,
11201122,
11210120,
11101115,
000000000000000000000000000000000008000000000000, //65
#GOGOEND
30202011,
01112116,
0,
000000000000000000000000000000000008000000000000,
000111400111,
400111400222,
4,
#GOGOSTART
#SCROLL 1.5
9, //73
09,
8,
#GOGOEND
#BARLINEOFF
#SCROLL 1
0,
0, //77
#END

COURSE:Normal
LEVEL:4
BALLOON:7,2,4,6,17
SCOREINIT:740,5060
SCOREDIFF:235
#START
#BARLINEOFF
#MEASURE 2/4
0,
#BARLINEON
#MEASURE 4/4
33,
33,
33,
0444, //5
1122,
1122,
1212,
1212,
500000000000000000000000000000000000000000000008,
02,
9009,
8,
200000000000000000000000
#GOGOSTART
#SCROLL 1.5
700000000008000000000000, //14
#SCROLL 1
1212,
10201110,
1212,
10101110,
1212,
10202220,
#GOGOEND
2022,
2, //22
1221,
10110100,
10110020,
12,
1221,
10110100,
10110020,
3003003030000000, //30
10001110,
10010020,
10001110,
10010020,
10010001,
00201005,
000000000000000000000000000000000008000000000000, //37
20000202,
02,
10000101,
01,
#SCROLL 0.75
20020002,
02,
40020000,
11,
22,
#SCROLL 1
78, //47
#GOGOSTART
30110020,
10110020,
3344,
10110020,
10110000,
10110000,
1122,
700000000000000000000000000000080000000000000000, //55
30110020,
10110020,
3344,
10110020,
10110000,
10110000,
1122,
10110020,
10101115,
000000000000000000000000000000000008000000000000, //65
#GOGOEND
30002001,
00011016,
0,
000000000000000000000000000000000008000000000000,
04,
44,
4,
#GOGOSTART
#SCROLL 1.5
9, //73
09,
8,
#GOGOEND
#BARLINEOFF
#SCROLL 1
0,
0, //77
#END

COURSE:Easy
LEVEL:3
BALLOON:6,2,3,5,14
SCOREINIT:790,8950
SCOREDIFF:358
#START
#BARLINEOFF
#MEASURE 2/4
0,
#BARLINEON
#MEASURE 4/4
33,
33,
33,
04, //5
12,
12,
11,
11,
500000000000000000000000000000000000000000000008,
0,
9009,
8,
000000000000000000000000
#GOGOSTART
#SCROLL 1.5
700000000008000000000000, //14
#SCROLL 1
11,
1110,
11,
1110,
11,
1110,
#GOGOEND
2,
2, //22
12,
10010000,
10010000,
1,
12,
10010000,
10010000,
33, //30
1011,
10010000,
1011,
10010000,
10010000,
00100005,
000000000000000000000000000008000000000000000000, //37
20000002,
0,
10000001,
0,
#SCROLL 0.75
2,
0,
4,
11,
22,
#SCROLL 1
78, //47
#GOGOSTART
30010000,
10010000,
34,
10010000,
20020000,
10010000,
1110,
700000000000000000000000000000080000000000000000, //55
30010000,
10010000,
34,
10010000,
20020000,
10010000,
1110,
10010000,
10101005,
000000000000000000000000000008000000000000000000, //65
#GOGOEND
30000001,
00000006,
0,
000000000000000000000000000000000008000000000000,
04,
44,
4,
#GOGOSTART
#SCROLL 1.5
9, //73
09,
8,
#GOGOEND
#BARLINEOFF
#SCROLL 1
0,
0, //77
#END
