//TJADB Project
TITLE:Hakujitsumu, Kirisame ni Tokete
TITLEJA:白日夢、霧雨に溶けて
SUBTITLE:--Goto feat. zeryo-one
SUBTITLEJA:後藤 feat.ぜりょわん
BPM:200
WAVE:Hakujitsumu, Kirisame ni Tokete.ogg
OFFSET:-0.331
DEMOSTART:37.510 //shinuchi:
4330/2600/1930/1390

COURSE:Oni
LEVEL:9
BALLOON:10,5,5
SCOREINIT:480,1450
SCOREDIFF:118
#START
0,
0,
20200200,
20020202,
10200200,
20020020,
20200200,
2000002020112000, //8
10210021,
0000201002102020,
10210021,
0000201110102022,
10210021,
0000201110002010,
20210021,
00210122, //16
1000201110102010,
2000201110102011,
10210121,
0000201000202022,
21121121,
1020101120102010,
0011221122100022,
1122112000222000, //24
30012101,
300000200000100100100000200000002000100020002000,
30112101,
300200100100200100201020,
30012101,
300000200000100100100000200000002000100000002000,
3000101020101110,
0, //32
#GOGOSTART
1000202220102000,
01200120,
1000202220111020,
0010200110102020,
1010200011102000,
2010200220102000,
1010202220111020,
0010200210102020, //40
1110202220102011,
1010200210102022,
1000202220111022,
2010201110102020,
1000200011102010,
0010200211102020,
1110200011101020,
1000220210002020, //48
1000201110102000,
1212,
1000201110102000,
1000202011102000,
3000201011102000,
3000201000102220,
3000201110112000,
3000201000112020, //56
1110200010102000,
1110200010102000,
21212121,
#GOGOEND
0, //60
#MEASURE 8/4
#SCROLL 0.5
1000010010000101,
1000010010010101,
1000010010000101,
2000010010010101,
200222100222100222100222,
100000002000200020002000100000002000200020002000100000002000200020002000100000002000200200200000,
100100100100101101101101,
222222111111
#SCROLL 2
700000000000,
#SCROLL 1
8000000027087080, //69
#MEASURE 4/4
12212212,
21223400,
12212212,
2010201020101111,
10122122,
300000400000200200200200500000000000000008000000,
3000102222102222,
1022221110102211, //77
12212212,
21221221,
22102102,
10210210,
1111,
1111,
1021202120212021,
1021202210212221, //85
1,
0010,
#GOGOSTART
1020102210201020,
1220102212201111,
102020102022,
102020102222,
100020002000100020002220,
100020002000100022222222, //93
2000200010201220,
1220102010201020,
2010201021112110,
#GOGOEND
#SCROLL 0.5
0,
10020000,
#SCROLL 0.6
0,
#SCROLL 0.72
0,
#SCROLL 0.86
0, //101
#END

COURSE:Hard
LEVEL:7
BALLOON:6,6,10,4,4
SCOREINIT:510,2060
SCOREDIFF:133
#START
0,
0,
2,
2,
1,
2,
2,
20000120, //8
10210021,
00210120,
10210021,
00210120,
10210021,
00210021,
00210021,
00210120, //16
10210021,
00210120,
10210021,
00210220,
11122211,
12222020,
07000807,
0000008000222000, //24
30012101,
30112000,
30112101,
30112000,
30012101,
30112000,
30112111,
0, //32
#GOGOSTART
1000202220002000,
01200120,
1000202220000020,
01201120,
1010200011101000,
01200120,
1010200000111010,
01201120, //40
1110100000102000,
11201120,
1000202220000020,
01201120,
10200120,
01201122,
10201012,
10201022, //48
10201120,
1212,
1212,
10221020,
30211020,
30210120,
30211120,
30210122, //56
3212,
1212,
21212121,
#GOGOEND
0, //60
#MEASURE 8/4
1000010010000101,
1000010010010101,
1000010010000101,
1000010010010101,
100222200222200222200222,
202222202222202222202020,
200100100100101101101100,
222200111100700000000000,
8000000007087080, //69
#MEASURE 4/4
1000201000222000,
21023300,
1000201000222000,
200000100000000000100000200000500000000000000008,
00102102,
300000300000500000000000000000000000000000000008,
0000102220102220,
100000200200200000100000000000500000000000000008, //77
00212210,
21221021,
22102102,
10210210,
1111,
1111,
2022202220222000,
1011101110111011, //85
1,
01,
#GOGOSTART
1020202220001000,
1020202220001110,
100000102022,
222100,
100000102022,
222122, //93
2000200010002220,
22101210,
21212121,
#GOGOEND
0,
10020000,
0,
0,
0, //101
#END

COURSE:Normal
LEVEL:6
BALLOON:4,4,8,3,3
SCOREINIT:530,2800
SCOREDIFF:140
#START
0,
0,
2,
2,
1,
2,
2,
2, //8
10110022,
00220100,
10220022,
00220100,
10220022,
00220001,
00220022,
00220100, //16
10220022,
00220100,
10220022,
00220000,
11110011,
11002020,
07000807,
00080000, //24
30011000,
30022000,
30111000,
30222000,
30011000,
30022000,
30111011,
0, //32
#GOGOSTART
10222020,
01100220,
10222002,
01100220,
10201110,
01100220,
10200111,
01100220, //40
11100220,
10201110,
10222002,
02200110,
10200110,
02201110,
10201011,
10201011, //48
10201110,
1212,
1212,
10111020,
30222020,
30220220,
30220220,
30220110, //56
3212,
1212,
20202022,
#GOGOEND
0, //60
#MEASURE 8/4
11,
1000010010000000,
11,
1000010010000000,
12222222,
202200200200202200202020,
21111111,
202200101100700000000000,
8000000007087080, //69
#MEASURE 4/4
10010020,
01003300,
10010020,
000000100000000000100000000000500000000000000008,
00100100,
300000300000500000000000000000000000000000000008,
00100100,
100000000000000000100000000000500000000000000008, //77
00220220,
22021021,
02102102,
10210210,
1111,
1111,
22202220,
11101111, //85
1,
01,
#GOGOSTART
1221,
1221,
100222,
21,
100222,
200222, //93
2112,
2111,
11101111,
#GOGOEND
0,
10020000,
0,
0,
0, //101
#END

COURSE:Easy
LEVEL:4
BALLOON:6
SCOREINIT:480,4800
SCOREDIFF:158
#START
0,
0,
2,
2,
1,
2,
2,
2, //8
10010001,
00020200,
10010001,
00020200,
10010001,
00020001,
00010001,
00020200, //16
10010001,
00020200,
10010001,
00020000,
30030030,
03003030,
000000500000000000000000000008000000000000500000,
000000000000000008000000000000000000000000000000, //24
31,
32,
31,
32,
31,
32,
300000000000500000000000000000000000000008000000,
0, //32
#GOGOSTART
1110,
0102,
2220,
0201,
0201,
0101,
1101,
0102, //40
2202,
0201,
1101,
0102,
2201,
0201,
1011,
1111, //48
1011,
1011,
1011,
1110,
32,
32,
32,
32, //56
3110,
1110,
2222,
#GOGOEND
0, //60
#MEASURE 8/4
1,
1,
1,
1,
22202220,
22202220,
20101110,
22207000,
8, //69
#MEASURE 4/4
10010010,
01003000,
10010010,
000000100000000000000000500000000000000008000000,
00100100,
300000000000500000000000000000000000000008000000,
00100100,
10010000, //77
10010010,
01001001,
00100100,
10010000,
01,
0011,
0111,
0111, //85
3,
0,
#GOGOSTART
12,
1110,
12,
21,
12,
22, //93
2011,
1011,
1111,
#GOGOEND
0,
1,
0,
0,
0, //101
#END
