//TJADB Project
TITLE:Unchained Girl!
TITLEJA:アンチェイン・ガール!
SUBTITLE:--Mini
SUBTITLEJA:みーに
BPM:155
WAVE:Unchained Girl.ogg
OFFSET:-1.565
DEMOSTART:56.853 //Shinuchi:
5540/3340/1950/1260

COURSE:Oni
LEVEL:8
BALLOON:14,8,8,8,26
SCOREINIT:420,1350
SCOREDIFF:95
#START
1002002000201020,
2012011000201020,
1022011000100010,
000000500000000000000008000000000000200000000000,
1002002001102000,
1002001002102010,
0020202210202210,
700000000000000000000000000000000000000008000000, //8
#GOGOSTART
1102201102102110,
1102201102102220,
3003003003003000,
001010101010700000000800,
#GOGOEND
1002002000202020,
1002002000202020,
1002002000202020,
1002002012102010,
1002202200102020,
1002202200102010,
1002202200102020,
1220102011112000, //20
1002202200102010,
1002202201102210,
1022001000102022,
1021201210102210,
1002202200102010,
1002202201102210,
1102201202105000,
000000000000000000000000000008000000000000000000, //28
1020100020002222,
1020101020022222,
1022201220100012,
2020102220221010,
1000100210201020,
1020100210202210,
1021021021021000,
001010101010700000000800, //36
#GOGOSTART
1102201202102010,
1102201202102210,
1022011012102050,
000000000000000000000008000000000000200000000000,
1102201202102110,
1201101201102010,
0020202210202210,
12020220,
12121212,
1111111111112000,
#GOGOEND
100100200200100100200200500000000000000000008000,
001010101010700000000800, //48
#GOGOSTART
3000112210211120,
3000112211211210,
3000112210211120,
1122112211211210,
4000112210211120,
3000112211211210,
1022111022111022,
100100100000200200200200100010001000200000000000, //56
101101201221,
102101202120,
101101201221,
211201211200,
101102111222,
112211200400,
1022111122112222,
1010101022221000, //64
#GOGOEND
1002002000002010,
1002002000102020,
5,
000000000008000000000000100100100000200000000200,
1002102010201020,
1002102010201022,
1012107000000000,
08, //72
#GOGOSTART
1102201202102010,
1102201202102210,
1022122021101020,
300000000600000000000008000000000000200000000000,
1102201202102110,
1201101201102010,
0020202210202210,
1020202012102222,
1102201202102210,
3003003000400010,
0020222210222210,
1020002000202210, //84
#GOGOEND
1102201102102110,
1102201102102220,
3003003003003000,
200000202020200000100100100000200000100000200000,
3006000000000000,
000000000000000000000000000000000000000000000008,
0,
0, //92
#END

COURSE:Hard
LEVEL:6
BALLOON:5,5,5,5,14
SCOREINIT:500,2140
SCOREDIFF:118
#START
1002002000202000,
1002002000202000,
1002002000100010,
000000500000000000000008000000000000000000000000,
1002002000102000,
1001001000200050,
000000000000000000000008000000000000000000000000,
3, //8
#GOGOSTART
1102001000102020,
1102001000102020,
3003003003003000,
001010101010700000000800,
#GOGOEND
1002002000202000,
1002002000202000,
1002002000202000,
1002002010102000,
1002002000202000,
1002002000202000,
1002002000202000,
1020100011102000, //20
1002202200102000,
1002202200102000,
1022001000102000,
1001001010002020,
1000202200102000,
1000202200102000,
1101001000105000,
000000000000000000000000000008000000000000000000, //28
12102022,
12112022,
10212101,
02120211,
1000100110001000,
1000100110001000,
1001001001001000,
001010101010700000000800, //36
#GOGOSTART
1002001000102010,
1002001000101010,
1022022000100050,
000000000000000000000008000000000000000000000000,
1002001000102010,
1001001000200050,
000000000000000000000008000000000000000000000000,
3002,
1111,
1110111011102000,
#GOGOEND
500000000000000000000000000000000000000000008000,
001010101010700000000800, //48
#GOGOSTART
3000111020222000,
3000111022202220,
3000111020222000,
1110111011101110,
4000111020222000,
3000111022202220,
1022201022201022,
2010222070000080, //56
101100200202,
1120,
101100200202,
101200101200,
101100500000,
000000000000000000000008000000000000400000000000,
1022202220222020,
1010101011111000, //64
#GOGOEND
1002002000002010,
1002002000102020,
5,
000000000008000000000000100100100000200000000000,
10121212,
10121212,
9009,
8, //72
#GOGOSTART
1102001000102010,
1002001000101010,
1022022000101020,
600000000000000000000008000000000000000000000000,
1102001000102010,
1101001000200010,
0020202010202220,
10001120,
1102001000102010,
3003003000400060,
000000000000000000000008000000000000000000000000,
3002, //84
#GOGOEND
1102001000102020,
1102001000102220,
3003003003003000,
00011110,
3006000000000000,
000000000000000000000000000000000000000000000008,
0,
0, //92
#END

COURSE:Normal
LEVEL:5
BALLOON:10,8,9,10
SCOREINIT:630,3790
SCOREDIFF:165
#START
1002,
1002,
10000105,
000000000000000000000008000000000000000000000000,
10010020,
10010105,
000000000000000000000008000000000000000000000000,
3, //8
#GOGOSTART
1001001000202000,
1001001000202000,
3003003003007000,
00000800,
#GOGOEND
10020020,
10020020,
10020020,
10011020,
10020020,
10020020,
10010010,
10101120, //20
10020020,
10020020,
10010020,
1001001010001000,
10020020,
10020020,
10010050,
000000000000000000000000000008000000000000000000, //28
10102002,
1120,
10201105,
000000000000000000000000000000000008000000000000,
2220,
2220,
1001001001007000,
00000800, //36
#GOGOSTART
1001001000102000,
1001001000102000,
1002002000100050,
000000000000000000000008000000000000000000000000,
1001001000102000,
1001001000100050,
000000000000000000000008000000000000000000000000,
3,
1111,
11111120,
#GOGOEND
9009,
8, //48
#GOGOSTART
30101110,
30102220,
30101110,
12121110,
40101110,
30102220,
5,
000000000000000000000008000000000000000000000000, //56
100100200001,
1120,
100100200001,
1212,
1150,
000000000000000000000008000000000000000000000000,
1222,
11111120, //64
#GOGOEND
1002,
1002,
5,
000000000008000000000000000000000000000000000000,
1111,
1111,
9009,
8, //72
#GOGOSTART
1001001000102000,
1001001000102000,
1002002000101000,
600000000000000000000008000000000000000000000000,
1001001000102000,
1001001000100050,
000000000000000000000000000000000008000000000000,
2,
1001001000102000,
3003003000300060,
000000000000000000000008000000000000000000000000,
3, //84
#GOGOEND
1001001000202000,
1001001000202000,
3003003003003000,
00011110,
3006000000000000,
000000000000000000000000000000000000000000000008,
0,
0, //92
#END

COURSE:Easy
LEVEL:4
BALLOON:7,7,7,8
SCOREINIT:640,6350
SCOREDIFF:178
#START
1,
1,
10000105,
000000000000000000000008000000000000000000000000,
10010000,
10010005,
000000000000000000000008000000000000000000000000,
3, //8
#GOGOSTART
10010020,
10010020,
600000000000000000000000000008000000700000000000,
00000800,
#GOGOEND
1,
1,
1,
11,
1,
1,
1,
1110, //20
10020000,
10020000,
10010000,
1011,
10020000,
10020000,
10010050,
000000000000000000000000000008000000000000000000, //28
11,
1110,
10001005,
000000000000000000000000000008000000000000000000,
22,
22,
500000000000000000000000000008000000700000000000,
00000800, //36
#GOGOSTART
10010020,
10010020,
10010005,
000000000000000000000008000000000000000000000000,
10010020,
10010105,
000000000000000000000008000000000000000000000000,
3,
1111,
1111,
#GOGOEND
9009,
8, //48
#GOGOSTART
3011,
3011,
3011,
1222,
4011,
3011,
5,
000000000000000000000008000000000000000000000000, //56
12,
12,
12,
1222,
15,
000000000000000000000008000000000000000000000000,
1222,
2222, //64
#GOGOEND
1,
1,
5,
000000000008000000000000000000000000000000000000,
1110,
1110,
9009,
8, //72
#GOGOSTART
10010020,
10010020,
10010010,
600000000000000000000008000000000000000000000000,
10010020,
10010105,
000000000000000000000000000000000008000000000000,
2,
10010020,
30030306,
000000000000000000000008000000000000000000000000,
3, //84
#GOGOEND
10010010,
10010010,
30030030,
0011,
6,
000000000000000000000000000000000000000000000008,
0,
0, //92
#END
