//TJADB Project
TITLE:RAINBOW★SKY
TITLEJA:RAINBOW★SKY
SUBTITLE:--Tatsunoshin
SUBTITLEJA:Tatsunoshin
BPM:185
WAVE:RAINBOW SKY.ogg
OFFSET:-1.365
DEMOSTART:31.854

COURSE:Oni
LEVEL:9
BALLOON:5,12,5
SCOREINIT:430,1300
SCOREDIFF:105
#START
#MEASURE 8/4
#SCROLL 0.5
0202,
0202,
0202,
000000000000000000000000200000000000000000000000000000000000700000000000000000080000000000000000, //4
#MEASURE 4/4
#SCROLL 1
1000100010111010,
1110101011101000,
1000100010111010,
1110101011111010,
1012112012112020,
1012112112112020,
1111111111111111,
10002210, //12
3000112010112010,
1011022010221020,
1022022010110110,
1011022010221020,
3000122010110110,
2011022010112010,
4000112010221020,
1011022010112000, //20
#GOGOSTART
1010201020212022,
1011211010202000,
1010201020212022,
1022122010102000,
1010201020212022,
1011211010102222,
1011201111112111,
7008, //28
#GOGOEND
1000211110112111,
1011211212103000,
2012012120120121,
2221102010004000,
1000201110102011,
1010211110102120,
1021102110211021,
1211211211204000, //36
1000211110112111,
1011211212103021,
2012012120120121,
2221102010004000,
1000222210102202,
1010212220201010,
2112202021122022,
100000000100100000200100500008000000400000000000, //44
1202,
00200220,
0202,
00200220,
0202,
00200220,
0000200000002022,
1020222270008000, //52
1000100010111010,
1110101011101000,
1000100010111010,
1110101011111010,
1012112012112020,
1012112112112020,
1111111111111111,
10002210, //60
#GOGOSTART
1010201020212022,
1011211010202000,
1010201020212022,
1022122010102000,
1010201020212022,
1011211010102222,
1011222010212022,
1122221111204000, //68
#GOGOEND
2211112222111122,
#GOGOSTART
2011211010202000,
1011201020212022,
1122122010102000,
1011201020212022,
1111211010102222,
1111211111112111,
1011112210104000, //76
2011022010120210,
0011222010120210,
2011022010120210,
0011222010120210,
2211022010120210,
0011222010120210,
2211022010120210,
1223,
#GOGOEND
0,
0, //86
#END

COURSE:Hard
LEVEL:6
BALLOON:11,8,8,9,10,9
SCOREINIT:640,2670
SCOREDIFF:168
#START
#MEASURE 8/4
#SCROLL 0.5
0202,
0202,
0202,
0200, //4
#MEASURE 4/4
#SCROLL 1
1111,
10101110,
1111,
10101110,
11101110,
11111110,
7,
8, //12
30012020,
1001001020002000,
1001001020001000,
2002002010002000,
32,
1001001020002000,
3500,
000000000000000000000000000000000008000000000000, //20
#GOGOSTART
10101012,
11221120,
10102021,
22112210,
10101012,
11221120,
10101122,
7008, //28
#GOGOEND
10211121,
1110201010104000,
1001001010010010,
1011101010004000,
10211121,
1110201010102000,
1010101011101110,
7008, //36
10211121,
1110201010104000,
1001001010010010,
1011101010004000,
1000202020222020,
11221120,
9009,
8, //44
0202,
00200220,
0202,
00200220,
0202,
00200220,
00200022,
02222000, //52
1111,
10101110,
1111,
10101110,
11101110,
11111110,
7,
8, //60
#GOGOSTART
10101012,
11221120,
10102021,
22112210,
10201022,
11221120,
10201022,
9009, //68
#GOGOEND
8,
#GOGOSTART
11221120,
10102021,
22112210,
10201022,
11221120,
10201022,
500000000000000000000000000000000008000000000000, //76
2000200010010010,
0020200010010010,
2000200010010010,
0020200010010010,
2000200010010010,
0020200010010010,
2000200010010010,
1223,
#GOGOEND
0,
0, //86
#END

COURSE:Normal
LEVEL:5
BALLOON:8,6,6,7,8,7
SCOREINIT:800,4440
SCOREDIFF:238
#START
#MEASURE 8/4
#SCROLL 0.5
0202,
0202,
0202,
0200, //4
#MEASURE 4/4
#SCROLL 1
11,
1111,
11,
1111,
10101110,
10101110,
7,
8, //12
32,
10011000,
10011000,
2022,
32,
10011000,
3500,
000000000000000000000000000000000008000000000000, //20
#GOGOSTART
1110,
11101000,
1110,
22202000,
1110,
11101000,
1111,
7008, //28
#GOGOEND
10200220,
10200240,
10011001,
1110,
10200220,
10200220,
10101110,
7008, //36
10200220,
10200240,
10011001,
1110,
10200220,
20202200,
9009,
8, //44
0202,
0202,
0202,
0202,
0202,
0202,
0202,
0, //52
11,
1111,
11,
1111,
10101110,
10101110,
7,
8, //60
#GOGOSTART
1110,
11101000,
1110,
22202000,
1210,
11101000,
1212,
9009, //68
#GOGOEND
8,
#GOGOSTART
11101000,
1110,
22202000,
1210,
11101000,
1212,
500000000000000000000000000000000008000000000000, //76
20002002,
02,
20002002,
02,
20002002,
02,
20002002,
1113,
#GOGOEND
0,
0, //86
#END

COURSE:Easy
LEVEL:3
BALLOON:7,4,4,6,7,6
SCOREINIT:640,6300
SCOREDIFF:208
#START
#MEASURE 8/4
#SCROLL 0.5
0200,
0200,
0200,
0200, //4
#MEASURE 4/4
#SCROLL 1
11,
1110,
11,
1110,
1111,
1110,
7,
8, //12
3,
11,
1,
22,
3,
11,
3500,
000000000000000000000000000008000000000000000000, //20
#GOGOSTART
1110,
11,
1110,
12,
1110,
11,
1110,
70000800, //28
#GOGOEND
1011,
12,
11,
1110,
1011,
11,
1111,
70000800, //36
1011,
12,
11,
1110,
1011,
11,
9009,
8, //44
0002,
0002,
0002,
0002,
0002,
0002,
0002,
0, //52
11,
1110,
11,
1110,
1111,
1110,
7,
8, //60
#GOGOSTART
1110,
11,
1110,
12,
1110,
11,
1110,
9009, //68
#GOGOEND
8,
#GOGOSTART
11,
1110,
12,
1110,
11,
1110,
500000000000000000000000000008000000000000000000, //76
22,
02002000,
22,
02002000,
22,
02002000,
22,
1113,
#GOGOEND
0,
0, //86
#END
