//TJADB Project
TITLE:Overd
TITLEJA:オーバード
SUBTITLE:--Takane Lui
SUBTITLEJA:鷹嶺ルイ
BPM:130
WAVE:Overd.ogg
OFFSET:-2.196
DEMOSTART:51.587 //Shinuchi:
5120/3100/2270/1910/1270

COURSE:Edit
LEVEL:10
BALLOON:
SCOREINIT:470,1370
SCOREDIFF:118 //RC score: 460/118
#START
#BARLINEOFF
#SCROLL 2
0,
0,
000000000000000000000101, //3
#BARLINEON
100202100202100201000200,
100202100202100201001200,
100202100202100201000200,
#BPMCHANGE 125
#SCROLL 2.08
200
#BPMCHANGE 130.746
#SCROLL 1.98
100000000000000000000
#BPMCHANGE 125
#SCROLL 2.08
200
#BPMCHANGE 130.746
#SCROLL 1.98
100000000000000000000
#BPMCHANGE 125
#SCROLL 2.08
200
#BPMCHANGE 130.746
#SCROLL 1.98
100000000000000000000
#BPMCHANGE 125
#SCROLL 2.08
200
#BPMCHANGE 130.746
#SCROLL 1.98
100000000000000000000
#BPMCHANGE 125
#SCROLL 2.08
200
#BPMCHANGE 126.902
#SCROLL 2.04
100000000000000000000000000000000000
#BPMCHANGE 125
#SCROLL 2.08
200
#BPMCHANGE 159.860
#SCROLL 1.62
100000
#BPMCHANGE 129.999
#SCROLL 2
000000000000000020000000200000000000000020000000, //7
#BPMCHANGE 130
100202100201101201102202,
100202100201101201101202,
100202100201101201102200,
#BPMCHANGE 125
#SCROLL 2.08
100
#BPMCHANGE 130.746
#SCROLL 1.98
200000000000000000000
#BPMCHANGE 125
#SCROLL 2.08
100
#BPMCHANGE 130.746
#SCROLL 1.98
200000000000000000000
#BPMCHANGE 125
#SCROLL 2.08
100
#BPMCHANGE 130.746
#SCROLL 1.98
200000000000000000000
#BPMCHANGE 125
#SCROLL 2.08
100
#BPMCHANGE 130.746
#SCROLL 1.98
200000000000000000000
#BPMCHANGE 125
#SCROLL 2.08
100
#BPMCHANGE 131.773
#SCROLL 1.96
200000000
#BPMCHANGE 129.997
#SCROLL 2
000020000000200000000000000020000000200000000000000020000000200000000000000020000000, //11
#BPMCHANGE 129.998
100202200202200202202100,
100202200202200202202100,
100202200202200202202100,
100202200202222222100000, //15
100202100202102202101102,
100202100202102202102100,
100202100202102202101102,
100202100202102202112200, //19
300300300202100202100201,
100202100202102202101200,
400400400202100202100201,
100202100222101202102200, //23
300300300202100202100201,
100202100202102202101100,
100202100202100202100202,
100101100101100200202200, //27
#GOGOSTART
102202102102300300300022,
100202102121102101102100,
102102102202400400400222,
101202101202300300302222, //31
102202102102400400400022,
100202102121102101102100,
#BPMCHANGE 129.999
100000000000000010000000200000000000000020000000100000000000000010000000200000000000000000000000
#BPMCHANGE 125
#SCROLL 2.08
200
#BPMCHANGE 130.746
#SCROLL 1.98
100000000000000000000
#BPMCHANGE 125
#SCROLL 2.08
100
#BPMCHANGE 130.746
#SCROLL 1.98
200000000000000000000
#BPMCHANGE 125
#SCROLL 2.08
200
#BPMCHANGE 130.746
#SCROLL 1.98
100000000000000000000
#BPMCHANGE 125
#SCROLL 2.08
100
#BPMCHANGE 130.746
#SCROLL 1.98
200000000000000000000,
#BPMCHANGE 129.998
#SCROLL 2
30004440, //35
#GOGOEND
1,
200000200000200020002020200200200200202020202020,
300300303001400400400002,
202202101101300300302222, //39
#GOGOSTART
102202102102400400400022,
100202102121102101102100,
#BPMCHANGE 129.999
100000000000000020000000200000000000000020000000100000000000000020000000200000000000000000000000
#BPMCHANGE 125
#SCROLL 2.08
200
#BPMCHANGE 130.746
#SCROLL 1.98
100000000000000000000
#BPMCHANGE 125
#SCROLL 2.08
100
#BPMCHANGE 131.773
#SCROLL 1.96
200000000
#BPMCHANGE 129.996
#SCROLL 2
000000005000000000000000000000000000000000008000000000000000, //42
#BPMCHANGE 129.998
102202102102300300300022,
100222102121102101102122,
102102102202400400400222,
101202101202300300302222, //46
102202102102400400400022,
100222102121102101102122,
#BPMCHANGE 129.999
100000000000000010000000200000000000000020000000100000000000000010000000200000000000000000000000
#BPMCHANGE 125
#SCROLL 2.08
200
#BPMCHANGE 130.746
#SCROLL 1.98
100000000000000000000
#BPMCHANGE 125
#SCROLL 2.08
100
#BPMCHANGE 130.746
#SCROLL 1.98
200000000000000000000
#BPMCHANGE 125
#SCROLL 2.08
200
#BPMCHANGE 130.746
#SCROLL 1.98
100000000000000000000
#BPMCHANGE 125
#SCROLL 2.08
100
#BPMCHANGE 130.746
#SCROLL 1.98
200000000000000000000,
#BPMCHANGE 129.998
#SCROLL 2
100020200020100020100020300000300000600000080000,
300000400000300000400202, //51
#GOGOEND
100202100201100201102202,
100202100201100201101202,
100202100201100201102200,
#BPMCHANGE 125
#SCROLL 2.08
200
#BPMCHANGE 130.746
#SCROLL 1.98
100000000000000000000
#BPMCHANGE 125
#SCROLL 2.08
200
#BPMCHANGE 130.746
#SCROLL 1.98
100000000000000000000
#BPMCHANGE 125
#SCROLL 2.08
200
#BPMCHANGE 130.746
#SCROLL 1.98
100000000000000000000
#BPMCHANGE 125
#SCROLL 2.08
200
#BPMCHANGE 130.746
#SCROLL 1.98
100000000000000000000
#BPMCHANGE 125
#SCROLL 2.08
200
#BPMCHANGE 126.894
#SCROLL 2.04
100000000000000000000000000000000000
#BPMCHANGE 125
#SCROLL 2.08
200
#BPMCHANGE 159.860
#SCROLL 1.62
100000
#BPMCHANGE 129.998
#SCROLL 2
000000000000000020000000200000000000000020000000, //55
100202101201101201102202,
100202101201101201101202,
100202101201101201102200,
#BPMCHANGE 125
#SCROLL 2.08
100
#BPMCHANGE 130.746
#SCROLL 1.98
200000000000000000000
#BPMCHANGE 125
#SCROLL 2.08
100
#BPMCHANGE 130.746
#SCROLL 1.98
200000000000000000000
#BPMCHANGE 125
#SCROLL 2.08
100
#BPMCHANGE 130.746
#SCROLL 1.98
200000000000000000000
#BPMCHANGE 125
#SCROLL 2.08
100
#BPMCHANGE 130.132
#SCROLL 1.98
200000000000000000000500000000000000000000000000000000000000000000000000000000000000000008000000000000000000000000000, //59
#BPMCHANGE 129.999
#SCROLL 1
1111,
1111,
1111,
1110,
1,
#BARLINEOFF
0, //65
#END

COURSE:Oni
LEVEL:7
BALLOON:
SCOREINIT:590,2260
SCOREDIFF:158
#START
#BARLINEOFF
0,
0,
0, //3
#BARLINEON
100000100000100001000100,
100000100000100001000100,
100000100000100001000100,
#BPMCHANGE 125
#SCROLL 1.04
3
#BPMCHANGE 130.746
#SCROLL 0.99
0000000
#BPMCHANGE 125
#SCROLL 1.04
4
#BPMCHANGE 130.746
#SCROLL 0.99
0000000
#BPMCHANGE 125
#SCROLL 1.04
3
#BPMCHANGE 130.746
#SCROLL 0.99
0000000
#BPMCHANGE 125
#SCROLL 1.04
4
#BPMCHANGE 130.746
#SCROLL 0.99
0000000
#BPMCHANGE 125
#SCROLL 1.04
3
#BPMCHANGE 126.902
#SCROLL 1.02
000000000000
#BPMCHANGE 125
#SCROLL 1.04
3
#BPMCHANGE 159.860
#SCROLL 0.81
00
#BPMCHANGE 129.999
#SCROLL 1
0000000000000000, //7
#BPMCHANGE 130
100200100200100201000100,
100200100200100201000100,
100200100200100201000100,
#BPMCHANGE 125
#SCROLL 1.03
3
#BPMCHANGE 130.746
#SCROLL 0.99
0000000
#BPMCHANGE 125
#SCROLL 1.04
4
#BPMCHANGE 130.746
#SCROLL 0.99
0000000
#BPMCHANGE 125
#SCROLL 1.04
3
#BPMCHANGE 130.746
#SCROLL 0.99
0000000
#BPMCHANGE 125
#SCROLL 1.04
4
#BPMCHANGE 130.746
#SCROLL 0.99
0000000
#BPMCHANGE 125
#SCROLL 1.04
3
#BPMCHANGE 131.773
#SCROLL 0.98
000
#BPMCHANGE 129.997
#SCROLL 1
0000000000000000000000000000, //11
#BPMCHANGE 129.998
11221212,
11221212,
100100200200100000200050000000000008000000000000,
200200100100200000100050000000000008000000000000, //15
11221212,
11221212,
100100200200100000200050000000000008000000000000,
200200100100200000100050000000000008000000000000, //19
3030302010102011,
100000100000200000100000500000000008000000000000,
4040401020201022,
200000200000100000200000500000000008000000000000, //23
3030302010102011,
100000100000200000100000500008000000200000000000,
12121212,
33334000, //27
#GOGOSTART
1122102030303000,
1022102010211020,
1222102030303000,
1112101040404000, //31
1122102030303000,
1022102010211020,
#BPMCHANGE 129.999
10000000200000001000200020000000
#BPMCHANGE 125
#SCROLL 1.04
3
#BPMCHANGE 130.746
#SCROLL 0.99
0000000
#BPMCHANGE 125
#SCROLL 1.04
4
#BPMCHANGE 130.746
#SCROLL 0.99
0000000
#BPMCHANGE 125
#SCROLL 1.04
3
#BPMCHANGE 130.746
#SCROLL 0.99
0000000
#BPMCHANGE 125
#SCROLL 1.04
4
#BPMCHANGE 130.746
#SCROLL 0.99
0000000,
#BPMCHANGE 129.998
#SCROLL 1
1222202030303000, //35
#GOGOEND
1,
0,
1010110120202000,
1010111040404000, //39
#GOGOSTART
1122102030303000,
1022102010211020,
#BPMCHANGE 129.999
10002000200020001000200020000000
#BPMCHANGE 125
#SCROLL 1.04
3
#BPMCHANGE 130.746
#SCROLL 0.99
0000000
#BPMCHANGE 125
#SCROLL 1.04
4
#BPMCHANGE 131.773
#SCROLL 0.98
000
#BPMCHANGE 129.996
#SCROLL 1
00002000000000000000, //42
#BPMCHANGE 129.998
1122112030303000,
1022102010211020,
1222122030303000,
1112111040404000, //46
1122112030303000,
1022102010211020,
#BPMCHANGE 129.999
10000000200000001000200020000000
#BPMCHANGE 125
#SCROLL 1.04
3
#BPMCHANGE 130.746
#SCROLL 0.99
0000000
#BPMCHANGE 125
#SCROLL 1.04
4
#BPMCHANGE 130.746
#SCROLL 0.99
0000000
#BPMCHANGE 125
#SCROLL 1.04
3
#BPMCHANGE 130.746
#SCROLL 0.99
0000000
#BPMCHANGE 125
#SCROLL 1.04
4
#BPMCHANGE 130.746
#SCROLL 0.99
0000000,
#BPMCHANGE 129.998
#SCROLL 1
1222122040404020,
1022102110201020, //51
#GOGOEND
100000100200100201000100,
100000100200100201000100,
100000100200100201000100,
#BPMCHANGE 125
#SCROLL 1.04
3
#BPMCHANGE 130.746
#SCROLL 0.99
0000000
#BPMCHANGE 125
#SCROLL 1.04
4
#BPMCHANGE 130.746
#SCROLL 0.99
0000000
#BPMCHANGE 125
#SCROLL 1.04
3
#BPMCHANGE 130.746
#SCROLL 0.99
0000000
#BPMCHANGE 125
#SCROLL 1.04
4
#BPMCHANGE 130.746
#SCROLL 0.99
0000000
#BPMCHANGE 125
#SCROLL 1.04
3
#BPMCHANGE 126.894
#SCROLL 1.02
000000000000
#BPMCHANGE 125
#SCROLL 1.04
3
#BPMCHANGE 159.860
#SCROLL 0.81
00
#BPMCHANGE 129.998
#SCROLL 1
0000000000000000, //55
100200100200100201000100,
100200100200100201000100,
100200100200100201000100,
#BPMCHANGE 125
#SCROLL 1.04
3
#BPMCHANGE 130.746
#SCROLL 0.99
0000000
#BPMCHANGE 125
#SCROLL 1.04
4
#BPMCHANGE 130.746
#SCROLL 0.99
0000000
#BPMCHANGE 125
#SCROLL 1.04
3
#BPMCHANGE 130.746
#SCROLL 0.99
0000000
#BPMCHANGE 125
#SCROLL 1.04
4
#BPMCHANGE 130.132
#SCROLL 0.99
000000030000000000000000000000000000000, //59
#BPMCHANGE 129.999
#SCROLL 1
1111,
1111,
1111,
1110,
1,
#BARLINEOFF
0, //65
#END

COURSE:Hard
LEVEL:5
BALLOON:
SCOREINIT:510,2790
SCOREDIFF:148
#START
#BARLINEOFF
0,
0,
0, //3
#BARLINEON
100000100000100001000000,
100000100000100001000000,
100000100000100001000000,
#BPMCHANGE 125
#SCROLL 1.04
3
#BPMCHANGE 130.746
#SCROLL 0.99
0000000
#BPMCHANGE 125
#SCROLL 1.04
4
#BPMCHANGE 130.746
#SCROLL 0.99
0000000
#BPMCHANGE 125
#SCROLL 1.04
3
#BPMCHANGE 130.746
#SCROLL 0.99
0000000
#BPMCHANGE 125
#SCROLL 1.04
4
#BPMCHANGE 130.746
#SCROLL 0.99
0000000
#BPMCHANGE 125
#SCROLL 1.04
3
#BPMCHANGE 126.902
#SCROLL 1.02
000000000000
#BPMCHANGE 125
#SCROLL 1.04
3
#BPMCHANGE 159.860
#SCROLL 0.81
00
#BPMCHANGE 129.999
#SCROLL 1
0000000000000000, //7
#BPMCHANGE 130
100000200000100001000000,
100000200000100001000000,
100000200000100001000000,
#BPMCHANGE 125
#SCROLL 1.03
3
#BPMCHANGE 130.746
#SCROLL 0.99
0000000
#BPMCHANGE 125
#SCROLL 1.04
4
#BPMCHANGE 130.746
#SCROLL 0.99
0000000
#BPMCHANGE 125
#SCROLL 1.04
3
#BPMCHANGE 130.746
#SCROLL 0.99
0000000
#BPMCHANGE 125
#SCROLL 1.04
4
#BPMCHANGE 130.746
#SCROLL 0.99
0000000
#BPMCHANGE 125
#SCROLL 1.04
3
#BPMCHANGE 131.773
#SCROLL 0.98
000
#BPMCHANGE 129.997
#SCROLL 1
0000000000000000000000000000, //11
#BPMCHANGE 129.998
11221212,
11221212,
100000100100100000100050000000000008000000000000,
100000100100100000100050000000000008000000000000, //15
11221212,
11221212,
100000100100100000100050000000000008000000000000,
100000100100100000100050000000000008000000000000, //19
33311112,
21112000,
44422221,
12221000, //23
33311112,
21112020,
10121212,
33333000, //27
#GOGOSTART
1011101030303000,
11221120,
1011101030303000,
2022202040404000, //31
1011101030303000,
11221120,
#BPMCHANGE 129.999
10000000100000002000000020000000
#BPMCHANGE 125
#SCROLL 1.04
3
#BPMCHANGE 130.746
#SCROLL 0.99
0000000
#BPMCHANGE 125
#SCROLL 1.04
4
#BPMCHANGE 130.746
#SCROLL 0.99
0000000
#BPMCHANGE 125
#SCROLL 1.04
3
#BPMCHANGE 130.746
#SCROLL 0.99
0000000
#BPMCHANGE 125
#SCROLL 1.04
4
#BPMCHANGE 130.746
#SCROLL 0.99
0000000,
#BPMCHANGE 129.998
#SCROLL 1
1011101030303000, //35
#GOGOEND
1,
0,
1010110110101000,
20204440, //39
#GOGOSTART
1011101030303000,
11221120,
#BPMCHANGE 129.999
10000000100000002000000020000000
#BPMCHANGE 125
#SCROLL 1.04
3
#BPMCHANGE 130.746
#SCROLL 0.99
0000000
#BPMCHANGE 125
#SCROLL 1.04
4
#BPMCHANGE 131.773
#SCROLL 0.98
000
#BPMCHANGE 129.996
#SCROLL 1
00002000000000000000, //42
#BPMCHANGE 129.998
1011102030303000,
11221120,
1011102030303000,
2022202040404000, //46
1011102030303000,
11221120,
#BPMCHANGE 129.999
10000000100000002000000020000000
#BPMCHANGE 125
#SCROLL 1.04
3
#BPMCHANGE 130.746
#SCROLL 0.99
0000000
#BPMCHANGE 125
#SCROLL 1.04
4
#BPMCHANGE 130.746
#SCROLL 0.99
0000000
#BPMCHANGE 125
#SCROLL 1.04
3
#BPMCHANGE 130.746
#SCROLL 0.99
0000000
#BPMCHANGE 125
#SCROLL 1.04
4
#BPMCHANGE 130.746
#SCROLL 0.99
0000000,
#BPMCHANGE 129.998
#SCROLL 1
1011102030303000,
12121122, //51
#GOGOEND
100000100000100001000000,
100000100000100001000000,
100000100000100001000000,
#BPMCHANGE 125
#SCROLL 1.04
3
#BPMCHANGE 130.746
#SCROLL 0.99
0000000
#BPMCHANGE 125
#SCROLL 1.04
4
#BPMCHANGE 130.746
#SCROLL 0.99
0000000
#BPMCHANGE 125
#SCROLL 1.04
3
#BPMCHANGE 130.746
#SCROLL 0.99
0000000
#BPMCHANGE 125
#SCROLL 1.04
4
#BPMCHANGE 130.746
#SCROLL 0.99
0000000
#BPMCHANGE 125
#SCROLL 1.04
3
#BPMCHANGE 126.894
#SCROLL 1.02
000000000000
#BPMCHANGE 125
#SCROLL 1.04
3
#BPMCHANGE 159.860
#SCROLL 0.81
00
#BPMCHANGE 129.998
#SCROLL 1
0000000000000000, //55
100000200000100001000000,
100000200000100001000000,
100000200000100001000000,
#BPMCHANGE 125
#SCROLL 1.04
3
#BPMCHANGE 130.746
#SCROLL 0.99
0000000
#BPMCHANGE 125
#SCROLL 1.04
4
#BPMCHANGE 130.746
#SCROLL 0.99
0000000
#BPMCHANGE 125
#SCROLL 1.04
3
#BPMCHANGE 130.746
#SCROLL 0.99
0000000
#BPMCHANGE 125
#SCROLL 1.04
4
#BPMCHANGE 130.132
#SCROLL 0.99
000000030000000000000000000000000000000, //59
#BPMCHANGE 129.999
#SCROLL 1
1111,
1111,
1111,
1110,
1,
#BARLINEOFF
0, //65
#END

COURSE:Normal
LEVEL:4
BALLOON:
SCOREINIT:520,4130
SCOREDIFF:165
#START
#BARLINEOFF
0,
0,
0, //3
#BARLINEON
1110,
1110,
1110,
#BPMCHANGE 125
#SCROLL 1.04
3
#BPMCHANGE 130.746
#SCROLL 0.99
0000000
#BPMCHANGE 125
#SCROLL 1.04
3
#BPMCHANGE 130.746
#SCROLL 0.99
0000000
#BPMCHANGE 125
#SCROLL 1.04
3
#BPMCHANGE 130.746
#SCROLL 0.99
0000000
#BPMCHANGE 125
#SCROLL 1.04
3
#BPMCHANGE 130.746
#SCROLL 0.99
0000000
#BPMCHANGE 125
#SCROLL 1.04
3
#BPMCHANGE 126.902
#SCROLL 1.02
000000000000
#BPMCHANGE 125
#SCROLL 1.04
0
#BPMCHANGE 159.860
#SCROLL 0.81
00
#BPMCHANGE 129.999
#SCROLL 1
0000000000000000, //7
#BPMCHANGE 130
1120,
1120,
1120,
#BPMCHANGE 125
#SCROLL 1.03
3
#BPMCHANGE 130.746
#SCROLL 0.99
0000000
#BPMCHANGE 125
#SCROLL 1.04
3
#BPMCHANGE 130.746
#SCROLL 0.99
0000000
#BPMCHANGE 125
#SCROLL 1.04
3
#BPMCHANGE 130.746
#SCROLL 0.99
0000000
#BPMCHANGE 125
#SCROLL 1.04
3
#BPMCHANGE 130.746
#SCROLL 0.99
0000000
#BPMCHANGE 125
#SCROLL 1.04
3
#BPMCHANGE 131.773
#SCROLL 0.98
000
#BPMCHANGE 129.997
#SCROLL 1
0000000000000000000000000000, //11
#BPMCHANGE 129.998
11,
10101110,
500000000000000000000000000000000008000000000000,
500000000000000000000000000000000008000000000000, //15
11,
10101110,
500000000000000000000000000000000008000000000000,
500000000000000000000000000000000008000000000000, //19
33301010,
10112000,
44402020,
20222000, //23
33301010,
10112000,
1122,
33333000, //27
#GOGOSTART
11103330,
10101120,
11103330,
20204440, //31
11103330,
10101120,
#BPMCHANGE 129.999
10000000000000002000000000000000
#BPMCHANGE 125
#SCROLL 1.04
3
#BPMCHANGE 130.746
#SCROLL 0.99
0000000
#BPMCHANGE 125
#SCROLL 1.04
0
#BPMCHANGE 130.746
#SCROLL 0.99
0000000
#BPMCHANGE 125
#SCROLL 1.04
4
#BPMCHANGE 130.746
#SCROLL 0.99
0000000
#BPMCHANGE 125
#SCROLL 1.04
0
#BPMCHANGE 130.746
#SCROLL 0.99
0000000,
#BPMCHANGE 129.998
#SCROLL 1
11103330, //35
#GOGOEND
1,
0,
11103330,
20204440, //39
#GOGOSTART
11103330,
10101120,
#BPMCHANGE 129.999
10000000000000002000000000000000
#BPMCHANGE 125
#SCROLL 1.04
3
#BPMCHANGE 130.746
#SCROLL 0.99
0000000
#BPMCHANGE 125
#SCROLL 1.04
0
#BPMCHANGE 131.773
#SCROLL 0.98
000
#BPMCHANGE 129.996
#SCROLL 1
00004000000000000000, //42
#BPMCHANGE 129.998
11103330,
10201120,
11103330,
20204440, //46
11103330,
10201120,
#BPMCHANGE 129.999
10000000000000002000000000000000
#BPMCHANGE 125
#SCROLL 1.04
3
#BPMCHANGE 130.746
#SCROLL 0.99
0000000
#BPMCHANGE 125
#SCROLL 1.04
0
#BPMCHANGE 130.746
#SCROLL 0.99
0000000
#BPMCHANGE 125
#SCROLL 1.04
4
#BPMCHANGE 130.746
#SCROLL 0.99
0000000
#BPMCHANGE 125
#SCROLL 1.04
0
#BPMCHANGE 130.746
#SCROLL 0.99
0000000,
#BPMCHANGE 129.998
#SCROLL 1
11104440,
10101111, //51
#GOGOEND
1110,
1110,
1110,
#BPMCHANGE 125
#SCROLL 1.04
3
#BPMCHANGE 130.746
#SCROLL 0.99
0000000
#BPMCHANGE 125
#SCROLL 1.04
3
#BPMCHANGE 130.746
#SCROLL 0.99
0000000
#BPMCHANGE 125
#SCROLL 1.04
3
#BPMCHANGE 130.746
#SCROLL 0.99
0000000
#BPMCHANGE 125
#SCROLL 1.04
3
#BPMCHANGE 130.746
#SCROLL 0.99
0000000
#BPMCHANGE 125
#SCROLL 1.04
3
#BPMCHANGE 126.894
#SCROLL 1.02
000000000000
#BPMCHANGE 125
#SCROLL 1.04
0
#BPMCHANGE 159.860
#SCROLL 0.81
00
#BPMCHANGE 129.998
#SCROLL 1
0000000000000000, //55
1120,
1120,
1120,
#BPMCHANGE 125
#SCROLL 1.04
4
#BPMCHANGE 130.746
#SCROLL 0.99
0000000
#BPMCHANGE 125
#SCROLL 1.04
4
#BPMCHANGE 130.746
#SCROLL 0.99
0000000
#BPMCHANGE 125
#SCROLL 1.04
4
#BPMCHANGE 130.746
#SCROLL 0.99
0000000
#BPMCHANGE 125
#SCROLL 1.04
4
#BPMCHANGE 130.132
#SCROLL 0.99
000000040000000000000000000000000000000, //59
#BPMCHANGE 129.999
#SCROLL 1
1111,
1111,
1111,
1110,
1,
#BARLINEOFF
0, //65
#END

COURSE:Easy
LEVEL:3
BALLOON:
SCOREINIT:530,6880
SCOREDIFF:225
#START
#BARLINEOFF
0,
0,
0, //3
#BARLINEON
11,
11,
11,
#BPMCHANGE 125
#SCROLL 1.04
3
#BPMCHANGE 130.746
#SCROLL 0.99
0000000
#BPMCHANGE 125
#SCROLL 1.04
0
#BPMCHANGE 130.746
#SCROLL 0.99
0000000
#BPMCHANGE 125
#SCROLL 1.04
3
#BPMCHANGE 130.746
#SCROLL 0.99
0000000
#BPMCHANGE 125
#SCROLL 1.04
0
#BPMCHANGE 130.746
#SCROLL 0.99
0000000
#BPMCHANGE 125
#SCROLL 1.04
3
#BPMCHANGE 126.902
#SCROLL 1.02
000000000000
#BPMCHANGE 125
#SCROLL 1.04
0
#BPMCHANGE 159.860
#SCROLL 0.81
00
#BPMCHANGE 129.999
#SCROLL 1
0000000000000000, //7
#BPMCHANGE 130
11,
1110,
11,
#BPMCHANGE 125
#SCROLL 1.03
3
#BPMCHANGE 130.746
#SCROLL 0.99
0000000
#BPMCHANGE 125
#SCROLL 1.04
0
#BPMCHANGE 130.746
#SCROLL 0.99
0000000
#BPMCHANGE 125
#SCROLL 1.04
3
#BPMCHANGE 130.746
#SCROLL 0.99
0000000
#BPMCHANGE 125
#SCROLL 1.04
0
#BPMCHANGE 130.746
#SCROLL 0.99
0000000
#BPMCHANGE 125
#SCROLL 1.04
3
#BPMCHANGE 131.773
#SCROLL 0.98
000
#BPMCHANGE 129.997
#SCROLL 1
0000000000000000000000000000, //11
#BPMCHANGE 129.998
11,
1011,
500000000000000000000000000000000008000000000000,
500000000000000000000000000008000000000000000000, //15
11,
1011,
500000000000000000000000000000000008000000000000,
500000000000000000000000000008000000000000000000, //19
31,
1110,
42,
2220, //23
31,
1110,
11,
3330, //27
#GOGOSTART
1133,
11,
1133,
1044, //31
1133,
11,
#BPMCHANGE 129.999
20000000000000000000000000000000
#BPMCHANGE 125
#SCROLL 1.04
4
#BPMCHANGE 130.746
#SCROLL 0.99
0000000
#BPMCHANGE 125
#SCROLL 1.04
0
#BPMCHANGE 130.746
#SCROLL 0.99
0000000
#BPMCHANGE 125
#SCROLL 1.04
4
#BPMCHANGE 130.746
#SCROLL 0.99
0000000
#BPMCHANGE 125
#SCROLL 1.04
0
#BPMCHANGE 130.746
#SCROLL 0.99
0000000,
#BPMCHANGE 129.998
#SCROLL 1
1033, //35
#GOGOEND
0,
0,
1133,
0044, //39
#GOGOSTART
1133,
11,
#BPMCHANGE 129.999
20000000000000000000000000000000
#BPMCHANGE 125
#SCROLL 1.04
4
#BPMCHANGE 130.746
#SCROLL 0.99
0000000
#BPMCHANGE 125
#SCROLL 1.04
0
#BPMCHANGE 131.773
#SCROLL 0.98
000
#BPMCHANGE 129.996
#SCROLL 1
00000000000000000000, //42
#BPMCHANGE 129.998
1133,
11,
1133,
1044, //46
1133,
11,
#BPMCHANGE 129.999
20000000000000000000000000000000
#BPMCHANGE 125
#SCROLL 1.04
4
#BPMCHANGE 130.746
#SCROLL 0.99
0000000
#BPMCHANGE 125
#SCROLL 1.04
0
#BPMCHANGE 130.746
#SCROLL 0.99
0000000
#BPMCHANGE 125
#SCROLL 1.04
4
#BPMCHANGE 130.746
#SCROLL 0.99
0000000
#BPMCHANGE 125
#SCROLL 1.04
0
#BPMCHANGE 130.746
#SCROLL 0.99
0000000,
#BPMCHANGE 129.998
#SCROLL 1
1033,
1011, //51
#GOGOEND
11,
1110,
11,
#BPMCHANGE 125
#SCROLL 1.04
3
#BPMCHANGE 130.746
#SCROLL 0.99
0000000
#BPMCHANGE 125
#SCROLL 1.04
0
#BPMCHANGE 130.746
#SCROLL 0.99
0000000
#BPMCHANGE 125
#SCROLL 1.04
3
#BPMCHANGE 130.746
#SCROLL 0.99
0000000
#BPMCHANGE 125
#SCROLL 1.04
0
#BPMCHANGE 130.746
#SCROLL 0.99
0000000
#BPMCHANGE 125
#SCROLL 1.04
3
#BPMCHANGE 126.894
#SCROLL 1.02
000000000000
#BPMCHANGE 125
#SCROLL 1.04
0
#BPMCHANGE 159.860
#SCROLL 0.81
00
#BPMCHANGE 129.998
#SCROLL 1
0000000000000000, //55
11,
1110,
22,
#BPMCHANGE 125
#SCROLL 1.04
4
#BPMCHANGE 130.746
#SCROLL 0.99
0000000
#BPMCHANGE 125
#SCROLL 1.04
0
#BPMCHANGE 130.746
#SCROLL 0.99
0000000
#BPMCHANGE 125
#SCROLL 1.04
4
#BPMCHANGE 130.746
#SCROLL 0.99
0000000
#BPMCHANGE 125
#SCROLL 1.04
0
#BPMCHANGE 130.132
#SCROLL 0.99
000000040000000000000000000000000000000, //59
#BPMCHANGE 129.999
#SCROLL 1
11,
11,
11,
11,
1,
#BARLINEOFF
0, //65
#END
