TITLE:Kyousou Kosai
TITLEJA:共奏鼓祭
SUBTITLE:--Rigel_Wired
SUBTITLEJA:Rigel_Wired
BPM:220
WAVE:Kyousou Kosai.ogg
OFFSET:-0.667
DEMOSTART:14.848

COURSE:Edit
LEVEL:10
BALLOON:
SCOREINIT:
SCOREDIFF:
#START
#MEASURE 3/4
2,
2,
2,
2,
200220,
202122,
201020202210,
202202,
111202,
100012222000,
111202,
100011222000,
101020112020,
101020112010,
5,
,
000000000000000000000000000008000000,
100012101020,
#GOGOSTART
100111200100100100,
102022102020,
100222200100100100,
101122,
100111200100100100,
102022102020,
100222200100100100,
100000000000100100202020200000200000,
102020101120,
102020102220,
102020101110,
200100100200000222,
102020101011,
201010201022,
102022111120,
#GOGOEND
100012101020,
#GOGOSTART
100111200100100100,
102022102020,
100222200100100100,
101122,
100111200100100100,
102022102020,
100222200100100100,
100000000000100100202020200000200000,
102020101120,
102020102220,
102020101110,
200100100200200222,
101000111010,
202000222020,
101011111010,
201022212220,
#GOGOEND
220202,
202220,
220202,
202220,
2,
2,
220000000000000000,
200200100222200200,
100111200100000100,
102010201110,
102210202220,
122222122222,
100022202010,
202000201111,
100022111020,
111122111122,
101011201012,
111210,
222111222,
122222122222,
100022202020,
101010200200200000300000000000100000,
201010111010,
111122111122,
200220,
222,
200220,
222,
202,
201022,
112,
201120,
202,
201120,
112,
201220,
201220,
202101,
201202,
202101,
220000000000000000,
,
,
,
200012202020,
202001,
200012202020,
202001,
200012202020,
202001,
200000100222200200,
202021,
101211,
202001,
101211,
202001,
101211,
201010102210,
111122121020,
100012101020,
#GOGOSTART
100111200100100100,
102022102020,
100222200100100100,
101122,
100111200100100100,
102022102020,
100222200100100100,
100000000000100100202020200000200000,
102020101120,
102020102220,
102020101110,
200100100200000222,
102020101011,
201010201022,
102022111120,
#GOGOEND
100012101020,
#GOGOSTART
100111200100100100,
102022102020,
100222200100100100,
101122,
100111200100100100,
102022102020,
100222200100100100,
100000000000100100202020200000200000,
102020101120,
102020102220,
102020101110,
200100100200200222,
101000111010,
202000222020,
101011111010,
201022212220,
#GOGOEND
200000222200000200,
222,
202221,
201220,
100000111100000100,
102122,
101122,
112122,
5,
000000000000000000000000000008000000,
5,
,
000000000000000000000000000000000008,
,
,
,
,
,
#END

COURSE:Oni
LEVEL:8
BALLOON:
SCOREINIT:
SCOREDIFF:
#START
#MEASURE 3/4
2,
2,
2,
2,
212,
221,
202210,
202110,
302112,
100011101000,
101221,
100022202000,
112020,
112010,
5,
,
000000000000000000000000000008000000,
101122,
#GOGOSTART
100010111020,
100020221020,
100020111010,
101122,
100010111020,
100020221020,
100010112000,
202122,
100010111000,
200020222000,
112020,
111020,
110211,
220212,
101120201010,
#GOGOEND
101122,
#GOGOSTART
100010111020,
100020221020,
100020111010,
101122,
100010111020,
100020221020,
100010112000,
202122,
100010111000,
200020222000,
112020,
101120,
101000101110,
202000202220,
112011,
202020002220,
#GOGOEND
2,
202,
122,
112,
1,
2,
220000000000000000,
221202,
112101,
101020101110,
100010112020,
322322,
300022202000,
202010202220,
100010112010,
322322,
300010201011,
111210,
202020202020200000,
322322,
300022202000,
322322,
101010111010,
322322,
202,
202,
222,
202,
2,
202002,
200020,
220,
202002,
202002,
202002,
220,
200022202000,
222,
200022202020,
202002,
220000000000000000,
,
,
,
201202,
202001,
201202,
202221,
201202,
202021,
201222,
200021,
101211,
202021,
101211,
202021,
101211,
211021,
101022202020,
101122,
#GOGOSTART
100010111020,
100020221020,
100020111010,
101122,
100010111020,
100020221020,
100010112000,
202122,
100010111000,
200020222000,
112020,
111020,
110211,
220212,
101120201010,
#GOGOEND
101122,
#GOGOSTART
100010111020,
100020221020,
100020111010,
101122,
100010111020,
100020221020,
100020112000,
202122,
100010111000,
200020222000,
112020,
101120,
101000101110,
202000202220,
112011,
202020002220,
#GOGOEND
202,
202,
222,
200,
101,
202,
101120,
112120,
5,
000000000000000000000000000008000000,
5,
,
000000000000000000000000000000000008,
,
,
,
,
,
#END

COURSE:Hard
LEVEL:5
BALLOON:30
SCOREINIT:
SCOREDIFF:
#START
#MEASURE 3/4
2,
2,
2,
2,
202,
202,
202,
2,
300112,
122,
100112,
102220,
112020,
112010,
5,
,
000000000000000000000008000000000000,
101122,
#GOGOSTART
100110,
112,
100110,
101122,
100110,
112,
100110,
202022,
100110,
200220,
112020,
111020,
100110,
200220,
112011,
#GOGOEND
101122,
#GOGOSTART
100110,
112,
100110,
101122,
100110,
112,
100110,
202022,
100110,
200220,
112020,
101220,
100110,
200220,
112011,
112020,
#GOGOEND
2,
202,
122,
112,
1,
2,
,
220200,
110100,
112110,
101110,
33,
31,
221220,
202220,
33,
31,
112110,
202020200000200000,
33,
302220,
33,
110101,
33,
202,
202,
202,
202,
2,
202002,
2,
2,
2,
202002,
2,
2,
9,
,
,
,
,
,
8,
,
201002,
202001,
202002,
201220,
201002,
202001,
202022,
200011,
102001,
221,
102001,
221,
102011,
101011,
2,
101122,
#GOGOSTART
100110,
112,
100110,
101122,
100110,
112,
100110,
202022,
100110,
200220,
112020,
111010,
100110,
200220,
112011,
#GOGOEND
101122,
#GOGOSTART
100110,
112,
100110,
101122,
100110,
112,
100110,
202022,
100110,
200220,
112020,
101220,
100110,
200220,
111010,
222020,
#GOGOEND
2,
202,
222,
2,
1,
2,
102,
122,
5,
000000000000000000000000000008000000,
5,
,
000000000000000000000000000000000008,
,
,
,
,
,
#END

COURSE:Normal
LEVEL:4
BALLOON:20
SCOREINIT:
SCOREDIFF:
#START
#MEASURE 3/4
2,
,
2,
,
2,
2,
2,
,
301,
122,
101,
100220,
122,
121,
5,
,
000000000000000000000008000000000000,
120,
#GOGOSTART
101,
102,
100110,
1,
101,
102,
100110,
2,
100110,
202,
111,
202,
101,
202,
101011,
#GOGOEND
120,
#GOGOSTART
101,
102,
100110,
1,
101,
102,
100110,
2,
100110,
202,
111,
2,
100110,
202,
111,
2,
#GOGOEND
2,
2,
2,
,
5,
,
000000000000000000000000000000000008,
,
1,
110,
101110,
33,
3,
220,
202220,
33,
3,
110,
220,
33,
3,
33,
2,
33,
2,
2,
2,
,
2,
,
2,
2,
2,
,
2,
2,
9,
,
,
,
,
,
8,
,
210,
202001,
110,
2,
210,
202001,
110,
201,
1,
201,
101001,
120,
101001,
101011,
1,
120,
#GOGOSTART
101,
102,
100110,
1,
101,
102,
100110,
2,
100110,
202,
111,
202,
101,
202,
101011,
#GOGOEND
120,
#GOGOSTART
101,
102,
100110,
1,
101,
102,
100110,
2,
100110,
202,
111,
2,
100110,
202,
111,
2,
#GOGOEND
2,
2,
2,
,
1,
2,
1,
112,
5,
000000000000000000000000000008000000,
5,
,
000000000000000000000000000000000008,
,
,
,
,
,
#END

COURSE:Easy
LEVEL:3
BALLOON:18
SCOREINIT:
SCOREDIFF:
#START
#MEASURE 3/4
2,
,
2,
,
2,
2,
2,
,
301,
1,
101,
1,
110,
110,
5,
,
000000000000000000000000000008000000,
,
#GOGOSTART
101,
101,
1,
1,
101,
102,
202,
2,
1,
201,
1,
201,
101,
101,
1,
#GOGOEND
2,
#GOGOSTART
101,
101,
1,
1,
101,
102,
202,
2,
1,
2,
110,
1,
1,
2,
110,
1,
#GOGOEND
2,
,
2,
,
5,
,
000000000000000000000000000000000008,
,
1,
110,
110,
33,
3,
220,
220,
33,
3,
110,
220,
33,
3,
3,
2,
3,
2,
2,
2,
,
2,
,
2,
2,
2,
,
2,
2,
9,
,
,
,
,
,
8,
,
2,
220,
2,
,
2,
220,
2,
,
1,
201,
1,
1,
110,
101,
1,
1,
#GOGOSTART
101,
101,
1,
1,
101,
102,
202,
2,
1,
201,
1,
201,
101,
101,
1,
#GOGOEND
2,
#GOGOSTART
101,
101,
1,
1,
101,
102,
202,
2,
1,
2,
110,
1,
1,
2,
110,
1,
#GOGOEND
2,
,
2,
,
1,
,
1,
110,
5,
000000000000000000000000000008000000,
5,
,
000000000000000000000000000000000008,
,
,
,
,
,
#END
