//TJADB Project
TITLE:Akiba 20XX
TITLEJA:アキバ20XX
SUBTITLE:--Sotokanda Literature High School Den'onbu / Den'onbu
SUBTITLEJA:外神田文芸高校電音部 「電音部」より
BPM:210
WAVE:Akiba 20XX.ogg
OFFSET:-1.443
DEMOSTART:73.444 //NS2 shinuchi score: 3440/2230/1660/1110

COURSE:Oni
LEVEL:10
BALLOON:53
SCOREINIT:420,1210
SCOREDIFF:100
#START
07000000,
#MEASURE 3/4
0,
0,
0,
0,
0,
#MEASURE 4/4
000008
#SCROLL 2
40, //7
#MEASURE 3/4
#SCROLL 1
101101,
101101,
333,
101101,
101101,
#MEASURE 4/4
333
#SCROLL 2
4, //13
#MEASURE 3/4
#SCROLL 1
101110200020,
101110200020,
323230,
101110200020,
101110200020,
#MEASURE 4/4
323230
#SCROLL 2
40, //19
#MEASURE 3/4
#SCROLL 1
101110222020,
101110222020,
323230,
101110222020,
101110222020,
#MEASURE 4/4
323230
#SCROLL 2
40, //25
#SCROLL 4
33033033,
#SCROLL 1
0, //27
#SCROLL 2
3000
#SCROLL 1
200110102010,
1000221001102010,
1022200110102010,
1002200110102010,
#SCROLL 2
3000
#SCROLL 1
200110102010,
1000221001102010,
1022200110102010,
1002200110102010, //35
#SCROLL 2
3000
#SCROLL 1
200110102010,
1000221001102010,
1022200110102010,
1002200110102010,
#SCROLL 2
3000
#SCROLL 1
200110102010,
1000221001102010,
1022200110102010,
1002200110102010, //43
#GOGOSTART
5,
000000000000000000000000000000000008000000000000,
#GOGOEND
1011121220202011,
2220221210201111,
#GOGOSTART
5,
000000000000000000000000000000000008000000000000,
#GOGOEND
1011121220202011,
2220221210201110, //51
#SCROLL 0.5
1222,
2220202020002000,
1222,
2220202020002000,
1222,
2220202020002000,
1000200020002022,
2000200022202000, //59
#SCROLL 0.75
1020221000102020,
2210102210201022,
1021221000102020,
2011202020101110,
#SCROLL 1
1001221022112110,
2010222210012010,
2010111012211011,
1221101011111221,
#SCROLL 2
1234, //68
#SCROLL 1
#GOGOSTART
1011212010221021,
1010212110222120,
1011212010221021,
1010212110222120,
0022112010221021,
1010212110212120,
1111201111211120,
#SCROLL 2
3434, //76
#SCROLL 1
0011212010221021,
1010212110222120,
1011212010221021,
1010212110222120,
0012221021112022,
1121102210400020,
1112101121101211,
13033030, //84
#GOGOEND
12222121,
2220202010102020,
11222121,
2020202010102222,
11022121,
2020202010100011,
1000111000111010,
#SCROLL 2
3434, //92
#SCROLL 1
#GOGOSTART
0011212010221021,
1010212110222120,
1011212010221021,
1010212110404040,
0012221021112022,
1121102210221220, //98
1112101121101211,
13033030,
#SCROLL 1.25
1112101121101211,
14033030,
#SCROLL 1.37
1112101121101211,
13333030,
#SCROLL 1.5
1222121222121222,
#SCROLL 2
1212221212211222, //106
#GOGOEND
#SCROLL 1
0,
0,
0,
0, //110
#END

COURSE:Hard
LEVEL:8
BALLOON:42
SCOREINIT:480,1900
SCOREDIFF:120
#START
07000000,
#MEASURE 3/4
0,
0,
0,
0,
0,
#MEASURE 4/4
000008
#SCROLL 2
40, //7
#MEASURE 3/4
#SCROLL 1
101101,
101101,
333,
101101,
101101,
#MEASURE 4/4
333
#SCROLL 2
4, //13
#MEASURE 3/4
#SCROLL 1
101202,
101202,
333,
101202,
101202,
#MEASURE 4/4
333
#SCROLL 2
4, //19
#MEASURE 3/4
#SCROLL 1
101202,
101202,
333,
101202,
101202,
#MEASURE 4/4
333
#SCROLL 2
4, //25
#SCROLL 4
33033033,
#SCROLL 1
0, //27
#SCROLL 2
30
#SCROLL 1
201121,
10210121,
10201121,
10201121,
#SCROLL 2
30
#SCROLL 1
201121,
10210121,
10201121,
10201121, //35
#SCROLL 2
30
#SCROLL 1
201121,
10210121,
10201121,
10201121,
#SCROLL 2
30
#SCROLL 1
201121,
10210121,
10201121,
10201121, //43
#GOGOSTART
5,
000000000000000000000000000000000008000000000000,
#GOGOEND
1010101020202220,
12212212,
#GOGOSTART
5,
000000000000000000000000000000000008000000000000,
#GOGOEND
11221121,
100000200000200000100000500000000000000008000000, //51
#SCROLL 0.5
2,
20222020,
2,
20222020,
2,
20222020,
20002002,
2, //59
#SCROLL 0.75
12210122,
21221010,
12210122,
21221010,
#SCROLL 1
1001201000110110,
2010100010012010,
21101100,
1000101011111010,
#SCROLL 2
1234, //68
#SCROLL 1
#GOGOSTART
11221212,
10210222,
11221212,
10210222,
01021212,
10210222,
11221212,
#SCROLL 2
3434, //76
#SCROLL 1
01221212,
10210220,
11221212,
10210222,
01221201,
20120400,
1110001110001110,
03033030, //84
#GOGOEND
10220121,
20221120,
11220121,
20221120,
11022121,
20221102,
10110110,
#SCROLL 2
3434, //92
#SCROLL 1
#GOGOSTART
01221212,
10210222,
10221212,
10210444,
01221201,
22122120, //98
1110001110001110,
03033030,
#SCROLL 1.25
1110001110001110,
04033030,
#SCROLL 1.37
1110001110001110,
03333030,
#SCROLL 1.5
1120001120001120,
#SCROLL 2
03033030, //106
#GOGOEND
#SCROLL 1
0,
0,
0,
0, //110
#END

COURSE:Normal
LEVEL:7
BALLOON:35,6
SCOREINIT:500,2660
SCOREDIFF:133
#START
07000000,
#MEASURE 3/4
0,
0,
0,
0,
0,
#MEASURE 4/4
000008
#SCROLL 1.5
40, //7
#MEASURE 3/4
#SCROLL 1
101100,
101100,
333,
101100,
101100,
#MEASURE 4/4
333
#SCROLL 1.5
4, //13
#MEASURE 3/4
#SCROLL 1
101101,
101101,
333,
101101,
101101,
#MEASURE 4/4
333
#SCROLL 1.5
4, //19
#MEASURE 3/4
#SCROLL 1
101101,
101101,
333,
101101,
101101,
#MEASURE 4/4
333
#SCROLL 1.5
4, //25
#SCROLL 4
33033033,
#SCROLL 1
0, //27
#SCROLL 1.5
30
#SCROLL 1
201021,
0212,
10201021,
0212,
#SCROLL 1.5
30
#SCROLL 1
201021,
0212,
10201021,
0212, //35
#SCROLL 1.5
30
#SCROLL 1
201021,
0212,
10201021,
0212,
#SCROLL 1.5
30
#SCROLL 1
201021,
0212,
10201021,
0212, //43
#GOGOSTART
5,
000000000000000000000000000000000008000000000000,
#GOGOEND
11102222,
20220110,
#GOGOSTART
5,
000000000000000000000000000000000008000000000000,
#GOGOEND
11112220,
500000000000000000000000000000000008000000000000, //51
#SCROLL 0.5
2,
2222,
2,
2222,
2,
2222,
20002002,
2, //59
#SCROLL 0.75
10110100,
11001010,
10110100,
11001010,
#SCROLL 1
10110010,
11001011,
10101100,
700000000000000000000000000000000000000000000008,
#SCROLL 1.5
0, //68
#SCROLL 1
#GOGOSTART
10101110,
10110220,
10101110,
10110220,
01011010,
10110220,
10110110,
#SCROLL 1.5
3434, //76
#SCROLL 1
01011010,
10110220,
10111110,
10110220,
01102201,
10220400,
11011011,
03033030, //84
#GOGOEND
1,
10110100,
1,
10110000,
1,
10110000,
10110110,
#SCROLL 1.5
3434, //92
#SCROLL 1
#GOGOSTART
01011010,
10110220,
10111110,
10110440,
01102201,
10220220, //98
11011011,
03033030,
11011011,
04033030,
11011011,
03333030,
12012012,
03033030, //106
#GOGOEND
0,
0,
0,
0, //110
#END

COURSE:Easy
LEVEL:5
BALLOON:30,4,4
SCOREINIT:410,4210
SCOREDIFF:113
#START
07000000,
#MEASURE 3/4
0,
0,
0,
0,
0,
#MEASURE 4/4
00000800, //7
#MEASURE 3/4
11,
11,
333,
11,
11,
#MEASURE 4/4
3330, //13
#MEASURE 3/4
11,
11,
333,
11,
11,
#MEASURE 4/4
3330, //19
#MEASURE 3/4
11,
11,
333,
11,
11,
#MEASURE 4/4
3330, //25
#SCROLL 4
700000000000000000000000000000000000000000000008,
#SCROLL 1
0, //27
3202,
1202,
1202,
1202,
3202,
1202,
1202,
1202, //35
3202,
1202,
1202,
1202,
3202,
1202,
1202,
1202, //43
#GOGOSTART
5,
000000000000000000000000000000000008000000000000,
#GOGOEND
1220,
1220,
#GOGOSTART
5,
000000000000000000000000000000000008000000000000,
#GOGOEND
1122,
500000000000000000000000000000000008000000000000, //51
#SCROLL 0.5
2,
22,
2,
22,
2,
22,
22,
2, //59
#SCROLL 0.75
10010000,
1011,
10010000,
1011,
#SCROLL 1
10010000,
1011,
11,
700000000000000000000000000000000000000000000008,
#SCROLL 1.5
0, //68
#SCROLL 1
#GOGOSTART
1111,
10010020,
1111,
10010020,
01001010,
10010020,
1111,
#SCROLL 1.5
600000000000000000000000000000000008000000000000, //76
#SCROLL 1
01001010,
20020020,
1111,
20020020,
01001000,
20020400,
10010010,
03033030, //84
#GOGOEND
1,
10010000,
1,
10010000,
1,
10010000,
10010010,
#SCROLL 1.5
600000000000000000000000000000000008000000000000, //92
#SCROLL 1
#GOGOSTART
01001010,
20020020,
1111,
200000000000000000200000000000600000000008000000,
01001000,
20020020, //98
10010010,
03033030,
10010010,
04033030,
10010010,
03333030,
10010010,
03033030, //106
#GOGOEND
0,
0,
0,
0, //110
#END
