//TJADB Project
TITLE:Bakuretsu Thaumazein (Prod. Chibanyan)
TITLEJA:爆裂タウマゼイン (Prod. チバニャン)
SUBTITLE:--Teion International High School Den'onbu / Den'onbu
SUBTITLEJA:帝音国際学院電音部 「電音部」より
BPM:180
WAVE:Bakuretsu Thaumazein (Prod. Chibanyan).ogg
OFFSET:-1.828
DEMOSTART:33.825 //Shinuchi score: 5190/2760/1860/1130

COURSE:Oni
LEVEL:8
BALLOON:23,27,12
SCOREINIT:390,1190
SCOREDIFF:90
#START
30102021,
100000100222200100200000,
300000100000200222200100,
10112120,
3022101120112010,
100000200200100000202020200000100000200000200000,
7,
000000000000000000000000000000000000000008000000, //8
11211021,
1020101020002011,
11211121,
1020101020002011,
11121121,
1000101020002011,
11121121,
1020101020002022, //16
1022101020202020,
1020101120002011,
1022101020102010,
2010101020002011,
1022101020102020,
1010201020002011,
1022102020002010,
1010202012102222, //24
1011202010202000,
1011201020202000,
1022112010222010,
2210201022102000,
1011202010202000,
1022112020202000,
1120201011202000,
500000000000000000000000000000000008000000000000, //32
22202220,
20222000,
22202220,
20222220,
12202220,
20122000,
12202221,
21122211, //40
6,
000000000000000000000000000000000000000008000000,
1022102210101222,
1022102210101222,
1012101120101222,
1012101120202020,
1011221011112120,
3334, //48
#GOGOSTART
3020112210201120,
100100200000100000202020200000200000100000000000,
300000200000100100200200100000202020200000200000,
1120102022101000,
3020112210201120,
100100200000100000202020200000200000100000000000,
7,
000000000000000000000000000000000000000008000000, //56
#GOGOEND
11211121,
1020101020002211,
11211121,
1020101020002211,
11121121,
1020101020002211,
11121121,
1020101020002222, //64
1022101020102020,
1020101120002211,
1022101020102010,
2010201120002211,
1022101020202020,
1010201020002211,
1022102020002010,
1010202012102222, //72
1011202010202000,
1011201020202000,
1022112010222010,
2210201022102000,
1011202010202000,
1022112020202000,
1120201011202020,
500000000000000000000000000000000008000000000000, //80
22202220,
20222000,
22202220,
20222220,
12202220,
20122000,
12202221,
21122211, //88
6,
000000000000000000000000000000000000000008000000,
1022102210101222,
1022102210101222,
1012101120101222,
1012101120202020,
1011221011112120,
2,
3020102210201220,
30303220, //98
#GOGOSTART
3020102210201220,
1122102210201020,
1020102210201220,
1122102210201022,
1022102210221220,
1122102210221220,
1122102211221220,
700000000000000000000000000000000000000000000008, //106
#GOGOEND
0,
0,
0, //109
#END

COURSE:Hard
LEVEL:6
BALLOON:16,9,20,10,10
SCOREINIT:510,2010
SCOREDIFF:118
#START
30101022,
10101120,
38101022,
10111120,
3000101110002020,
10111120,
7,
000000000000000000000000000000000000000008000000, //8
10111020,
20111000,
10111020,
20112000,
10111020,
20111000,
11211020,
20112000, //16
11211020,
20112000,
11211020,
21112020,
11211020,
21112000,
11211020,
22112020, //24
1122,
1011101020002000,
11211220,
500000000000000000000000000000000008000000000000,
1122,
1011101020002000,
11211220,
500000000000000000000000000000000008000000000000, //32
2220,
0220,
2220,
0220,
2220,
20222000,
2220,
20222020, //40
6,
000000000000000000000000000000000000000008000000,
11101120,
11101220,
1010101110102000,
1010101110202000,
700000000000000000000000000000000000000008000000,
3334, //48
#GOGOSTART
3000101110102020,
10111120,
3000101110102020,
10111120,
3000101110102020,
10111120,
7,
000000000000000000000000000000000000000008000000, //56
#GOGOEND
10111020,
20111000,
10111020,
20112000,
10111020,
20111000,
11211020,
20112000, //64
11211020,
21112000,
11211020,
21112020,
11211020,
21112000,
11211020,
22112020, //72
1122,
1011101020002000,
1011101010202000,
500000000000000000000000000000000008000000000000,
11211220,
1011101020002000,
11211220,
500000000000000000000000000000000008000000000000, //80
2220,
0220,
2220,
0220,
2220,
20222000,
2220,
20222020, //88
6,
000000000000000000000000000000000000000008000000,
11101120,
11101220,
1010101110102000,
1010101110202000,
700000000000000000000000000000000000000000000008,
0,
3000101110102000,
3332, //98
#GOGOSTART
3000101110102010,
1000101110102000,
1000101110202010,
1000101110102000,
1000101110102010,
1000101110102000,
1000101110202010,
900000000000000000000000000000000009000000000008, //106
#GOGOEND
0,
0,
0, //109
#END

COURSE:Normal
LEVEL:6
BALLOON:12,7,15,8,8
SCOREINIT:600,3020
SCOREDIFF:150
#START
3112,
1120,
3112,
1120,
30111020,
10111020,
7,
000000000000000000000000000000000000000008000000, //8
1110,
0110,
1110,
0120,
1110,
0110,
1110,
0120, //16
1110,
00111000,
1110,
00112000,
1110,
00111000,
1110,
00112020, //24
1111,
10112000,
11101110,
500000000000000000000000000000000008000000000000,
1111,
10112000,
11101110,
500000000000000000000000000000000008000000000000, //32
22,
02,
22,
02,
2220,
0220,
2220,
0222, //40
6,
000000000000000000000000000000000000000008000000,
11102010,
11102020,
11102010,
11102220,
700000000000000000000000000000000000000008000000,
3330, //48
#GOGOSTART
30112011,
10101120,
30112011,
10101120,
30112011,
10101120,
7,
000000000000000000000000000000000000000008000000, //56
#GOGOEND
1110,
0110,
1110,
0120,
1110,
0110,
1110,
0120, //64
1110,
00111000,
1110,
00112000,
1110,
00111000,
1110,
00112020, //72
1111,
10112000,
11101110,
500000000000000000000000000000000008000000000000,
1111,
10112000,
11101110,
500000000000000000000000000000000008000000000000, //80
22,
02,
22,
02,
2220,
0220,
2220,
0222, //88
6,
000000000000000000000000000000000000000008000000,
11102010,
11102020,
11102010,
11102220,
700000000000000000000000000000000000000000000008,
0,
3222,
3330, //98
#GOGOSTART
30112011,
10112020,
10112011,
10112020,
10112011,
10112020,
10112011,
900000000000000000000000000000000009000000000008, //106
#GOGOEND
0,
0,
0, //109
#END

COURSE:Easy
LEVEL:3
BALLOON:10,4,10,6,6
SCOREINIT:590,5870
SCOREDIFF:173
#START
31,
1,
31,
2,
31,
11,
7,
000000000000000000000000000008000000000000000000, //8
1,
0,
1,
02,
1,
0,
1,
02, //16
11,
0110,
11,
0220,
11,
0110,
11,
0220, //24
1110,
1,
11,
500000000000000000000000000008000000000000000000,
1110,
1,
11,
500000000000000000000000000008000000000000000000, //32
2,
0,
2,
0,
22,
0220,
22,
0220, //40
6,
000000000000000000000000000008000000000000000000,
1110,
22,
1110,
1110,
700000000000000000000000000008000000000000000000,
3330, //48
#GOGOSTART
3111,
12,
3111,
12,
3111,
12,
7,
000000000000000000000000000008000000000000000000, //56
#GOGOEND
1,
0,
1,
02,
1,
0,
1,
02, //64
11,
0110,
11,
0220,
11,
0110,
11,
0220, //72
1110,
1,
11,
500000000000000000000000000008000000000000000000,
1110,
1,
11,
500000000000000000000000000008000000000000000000, //80
2,
0,
2,
0,
22,
0220,
22,
0220, //88
6,
000000000000000000000000000008000000000000000000,
1110,
22,
1110,
1110,
700000000000000000000000000000000000000000000008,
0,
3110,
3330, //98
#GOGOSTART
3111,
12,
1111,
11,
1111,
12,
1111,
900000000000000000000000000000000009000000000008,
#GOGOEND
0,
0,
0, //109
#END
