//TJADB Project
TITLE:IAM (feat. Shogo, Tsubasa)
TITLEJA:IAM (feat. Shogo, Tsubasa)
SUBTITLE:--Minato Shirokane Girls' High School Den'onbu / Den'onbu
SUBTITLEJA:港白金女学院電音部 「電音部」より
BPM:138
WAVE:IAM (feat. Shogo, Tsubasa).ogg
OFFSET:-1.145
DEMOSTART:42.345 //shinuchi score: 6080/4240/2590/1610

COURSE:Oni
LEVEL:7
BALLOON:6,6,6,6
SCOREINIT:520,1690
SCOREDIFF:128
#START
1101101120202000,
1101101122022020,
1101101120202000,
1001001120221000,
100010100010100010100000,
100000102020102020100000,
102020102020102020100000,
100010100010100000200000, //8
101010200020100010200000,
101010200020100010200000,
100010200020100010200020,
100010200020102010200000,
101010200020100010200000,
101010200020100010200000,
100010200020100010200020,
100010200020102010200000, //16
101010200020101010200020,
101010202020100000200000,
101010200020101010200020,
101010200020102010200000,
101010200020101010200020,
101010200020102010200000,
100010200020100010200020,
100000200000100000100010, //24
#GOGOSTART
100010102010102020102020,
100010102010102020100000,
100020102020100020100020,
100020102020100020100010,
100010102010102020102020,
100010102010102020100000,
100010100010100010101010,
#GOGOEND
10007008, //32
1010001120102210,
0020100022221110,
1010001120102210,
000200100100202020101010,
1010001120102210,
0020100022221110,
1010001120102210,
0000200010010010, //40
1000122012201020,
1020111022221110,
1000122012201020,
1020111022201000,
1000122012201020,
1020111022221110,
10700870,
08700800,
2222,
0, //50
100000000000200000102020,
1021,
100000000000200000102020,
12,
101010201020101010201020,
101010201020102020100000,
100010100010100010100010,
3334, //58
#GOGOSTART
300000100000101010202020,
300000100000101010202020,
300000100000101010202020,
100010100010100010100000,
300000100000101020101020,
300000100020101020101020,
300000101020101020100000,
100010100010100010200000, //64
300000102020102020102020,
300000201020102020100000,
202020201010202020201010,
202020201010100010100000,
300000102020102020102020,
300000201020102020100000,
202020201010202020201010,
202020201010100010200000,
#GOGOEND
0,
0, //76
#END

COURSE:Hard
LEVEL:5
BALLOON:5,5,5,27
SCOREINIT:640,2840
SCOREDIFF:158
#START
600000000000000000000008000000000000000000000000,
600000000000000000000008000000000000000000000000,
600000000000000000000008000000000000000000000000,
3043,
100101101100,
100102102100,
100102102100,
100101100000, //8
100200101100,
100200101100,
100100101100,
101100101100,
100200101100,
100200101100,
100100101100,
101100101100, //16
101200101200,
111101100200,
101200101200,
111101100200,
101200101200,
111101100200,
100101101100,
1210, //24
#GOGOSTART
101101111100,
101101111100,
101111100200,
101111100200,
101101111100,
101101111100,
100101101100,
#GOGOEND
12, //32
11012112,
02102000,
11012112,
000000200000100000000000600000000000000008000000,
11012112,
02102000,
11012112,
0220, //40
10121210,
1020102011101000,
10121210,
12121120,
10121210,
1020102011101000,
10700870,
08700800,
2222,
0, //50
1021,
1021,
1022,
12,
6,
000000000000000000000000000000000008000000000000,
100000100010100010100000,
3334, //58
#GOGOSTART
300100111100,
300100111100,
300100222200,
101101101100,
300100111100,
300100111100,
300100222200,
101101101200, //66
300200111100,
300200121200,
6,
000000000000000000000000000000000008000000000000,
300200111100,
300200121200,
9,
09,
#GOGOEND
8,
0, //76
#END

COURSE:Normal
LEVEL:5
BALLOON:15,8,8,19
SCOREINIT:840,4770
SCOREDIFF:238
#START
600000000000000000000008000000000000000000000000,
600000000000000000000008000000000000000000000000,
600000000000000000000008000000000000000000000000,
34,
1222,
1021,
1111,
1220, //8
1011,
1011,
1212,
1110,
1011,
1011,
1212,
1110, //16
1112,
1120,
1112,
1120,
1112,
1120,
1212,
1, //24
#GOGOSTART
1111,
100100101100,
1120,
1120,
1111,
100100101100,
1112,
#GOGOEND
12, //32
10001011,
0120,
10001011,
000000000000100000000000600000000000000008000000,
10001011,
0120,
10001011,
0220, //40
10111010,
11101010,
20222020,
22202020,
10111010,
11101010,
7,
0008,
2222,
0, //50
12,
1021,
12,
12,
6,
000000000000000000000000000000000008000000000000,
1111,
4440, //58
#GOGOSTART
3011,
3022,
3011,
70000008,
3011,
3022,
3011,
70000008, //66
300100101100,
3212,
6,
000000000000000000000000000000000008000000000000,
300100101100,
3212,
9,
09,
#GOGOEND
8,
0, //76
#END

COURSE:Easy
LEVEL:3
BALLOON:12,4,4,15
SCOREINIT:670,7080
SCOREDIFF:205
#START
600000000000000000000008000000000000000000000000,
600000000000000000000008000000000000000000000000,
600000000000000000000008000000000000000000000000,
34,
1110,
11,
1110,
12, //8
1,
1,
11,
11,
1,
2,
11,
12, //16
11,
1110,
11,
1110,
22,
2220,
1111,
1, //24
#GOGOSTART
11,
1111,
11,
1110,
11,
1111,
1011,
#GOGOEND
1, //32
12,
0110,
12,
0130,
12,
0110,
12,
0, //40
1110,
1110,
2220,
2220,
1110,
1110,
7,
00000800,
22,
0, //50
1,
1001,
1,
1,
6,
000000000000000000000000000008000000000000000000,
1110,
4440, //58
#GOGOSTART
3011,
3011,
3011,
700000800,
3011,
3011,
3011,
700000800, //66
3011,
3022,
6,
000000000000000000000000000008000000000000000000,
3011,
3022,
9,
09,
#GOGOEND
8,
0, //76
#END
