//TJADB Project
TITLE:Bukan Cinta Biasa
TITLEJA:Bukan Cinta Biasa
SUBTITLE:--
SUBTITLEJA:
BPM:113
WAVE:Bukan Cinta Biasa.ogg
OFFSET:-1.953
DEMOSTART:95.397 //SONG_ID:bukan

COURSE:Oni
LEVEL:6
BALLOON:16,72
SCOREINIT:3030
SCOREDIFF:0
#START
2200,
2,
2220,
20201222,
10222001,
10222000,
10222002,
70000008,
4, //9
10222020,
22200000,
10222020,
22201020,
10222020,
2200,
11102220,
10022000, //17
10212020,
1120,
10212020,
10221020,
10212020,
1120,
11102220,
5,
000000000000000008000000000000000000000000000000, //26
10221220,
1122,
10221220,
10033040,
1010201110002000,
1010201110002000,
11221122,
600000000000000000000000000000000008000000000000, //34
#GOGOSTART
1000111020111020,
1000100020222000,
1000111020111020,
1000100022202020,
1020100020002220,
12102022,
11221120,
11011030,
500000000000000000000000000000000000000008000000,
600000000000000000000000000000000008000000000000, //44
1000111020111020,
1000100020222000,
1000111020111020,
1000100022202020,
1011101020002220,
1011102030002000,
1110202011102020,
600000000000000000000000000000000008000000000000, //52
1000111020111020,
1000101110222020,
1000111020111020,
1110222011102220,
1110102010001010,
2220201020001000,
11221120,
500000000000000000000000000000000000000000000008,
#GOGOEND
0, //61
10202001,
10222000,
1110,
4,
7,
0,
0,
8,
0, //70
#END

COURSE:Hard
LEVEL:5
BALLOON:13,50
SCOREINIT:4040
SCOREDIFF:0
#START
2200,
2,
2200,
2022,
10002001,
12,
1,
70000008,
4, //9
2022,
22200000,
2022,
22202000,
2022,
2200,
11102020,
20022000, //17
1022,
1120,
1022,
10221020,
1022,
1120,
11102220,
5,
000000000000000008000000000000000000000000000000, //26
1212,
1122,
1212,
10033040,
11101020,
11101020,
11102220,
600000000000000000000000000000000008000000000000, //34
#GOGOSTART
1000111020201010,
10102220,
1000111020201010,
10102220,
12102020,
12102020,
11102220,
11011030,
500000000000000000000000000000000000000008000000,
600000000000000000000000000000000008000000000000, //44
1000111020201010,
10102220,
1000111020201010,
10102220,
1011101020002000,
1011100030002000,
11102220,
600000000000000000000000000000000008000000000000, //52
1000111010111010,
10102220,
1000111010111010,
10102220,
11102010,
22202010,
11102220,
500000000000000000000000000000000000000000000008,
#GOGOEND
0, //61
1220,
2,
1110,
4,
7,
0,
0,
8,
0, //70
#END

COURSE:Normal
LEVEL:3
BALLOON:9,8,40
SCOREINIT:6400
SCOREDIFF:0
#START
2,
2,
2,
22,
1,
11,
1,
70000008,
4, //9
22,
2200,
22,
2220,
22,
2200,
1022,
2, //17
12,
1100,
12,
1220,
12,
1100,
1022,
5,
000000000000000008000000000000000000000000000000, //26
12,
1122,
12,
700000000000000000000000000000000000080000000000,
1110,
2220,
1122,
600000000000000000000000000000000008000000000000, //34
#GOGOSTART
10111010,
1210,
10111010,
1210,
11102000,
11102000,
1122,
1013,
500000000000000000000000000000000000000008000000,
600000000000000000000000000000000008000000000000, //44
10111010,
1210,
10111010,
1210,
11102000,
11103000,
1122,
600000000000000000000000000000000008000000000000, //52
10111010,
1012,
10111010,
1210,
11102000,
22202000,
1122,
500000000000000000000000000000000000000000000008,
#GOGOEND
0, //61
12,
2,
11,
4,
7,
0,
0,
8,
0, //70
#END

COURSE:Easy
LEVEL:2
BALLOON:6,6,33
SCOREINIT:10300
SCOREDIFF:0
#START
2,
0,
2,
0,
1,
11,
1,
70000800,
4, //9
2,
2,
2,
22,
2,
2,
22,
2, //17
1,
1,
1,
11,
1,
1,
11,
5,
000000000000000008000000000000000000000000000000, //26
1,
22,
1,
70000800,
11,
22,
11,
600000000000000000000000000008000000000000000000, //34
#GOGOSTART
11,
1110,
11,
1110,
12,
12,
1011,
1003,
6,
000000000000000000000000000008000000000000000000, //44
11,
1110,
11,
1110,
1100,
1130,
1111,
600000000000000000000000000008000000000000000000, //52
11,
1011,
12,
1110,
1100,
2200,
1111,
500000000000000000000000000000000000000000000008,
#GOGOEND
0, //61
1,
2,
1,
4,
7,
0,
0,
8,
0, //70
#END
