//TJADB Project
TITLE:Tokyo Shandy Rendezvous
TITLEJA:トウキョウ・シャンディ・ランデヴ
SUBTITLE:--MAISONdes feat. KAF, Tsumiki / Urusei Yatsura
SUBTITLEJA:TVアニメ「うる星やつら」より
BPM:137
WAVE:Tokyo Shandy Rendezvous.ogg
OFFSET:-1.725
DEMOSTART:56.886 //SONG_ID: tmktsr

COURSE:Oni
LEVEL:8
BALLOON:10,2,2,2,2
SCOREINIT:640,2040
SCOREDIFF:168
#START
1010201010122201,
0010211102110202,
1011201010121112,
0222201010102202,
1000101020021122,
100100202020200000100000200000200000100100200200,
1202101020120022,
100200202020200000100000200000000000100000000000, //8
1020102210221102,
1020102210221202,
1020102210221202,
1020122210201202,
1020120210201202,
1022120220201222,
1020102210201022,
1010211221011102, //16
1020102210221102,
1020102210221202,
1020102210221202,
1020122210201202,
1020120210101202,
1022120210201202,
1022120210221205,
000000000000008000000000100000200200100100000200, //24
0120101020012021,
0120102010202111,
2011202210210201,
0212102010202112,
0120101020012021,
0122102010202111,
2011202210210201,
78, //32
#GOGOSTART
1022102210201020,
1122101102201020,
3021021040120120,
3011202030202000,
1022102210201011,
2011201102201020,
3021021040120120,
3011010120202000, //40
1022102210201010,
1122101102201020,
3021021040120120,
3011202030202000,
1022102210201011,
2011201102201020,
3021021040120120,
30003340,
#GOGOEND
700008000700008000700008000700008000100000100100,
1020101011221020,
0,
0, //52
#END

COURSE:Hard
LEVEL:5
BALLOON:
SCOREINIT:720,3290
SCOREDIFF:210
#START
1000001010001001,
0010011100000000,
1000001010001002,
00001100,
1000101020020000,
12112010,
1000101020020000,
12112000, //8
1000100010101101,
1000100010101101,
1000100010110105,
000000000000000000008000000000100000100100000100,
0010110100101101,
0010110100001011,
0010101100101011,
0010101011010102, //16
0000200010101101,
1000100010101101,
1000101010110105,
000000000000000000008000000000100000100100000100,
0010110100101101,
0010110100001101,
0011010100110105,
000000000000008000000000000000000000000000000200, //24
0100101010010001,
0110101010000000,
1010202010110101,
0110101010000001,
0110101010010001,
0110101010000000,
1010202010110105,
000000000000000000000008000000000000000000000000, //32
#GOGOSTART
12121011,
2020101100001010,
3001001040020020,
31223000,
12121011,
2020101100202020,
3001001040020020,
3011010110102000, //40
12121011,
2020101100001010,
3001001040020020,
31223000,
12121011,
2020101100202020,
3001001040020020,
30003330,
#GOGOEND
4000001000001011,
1010101011101020,
0,
0, //52
#END

COURSE:Normal
LEVEL:3
BALLOON:7,7
SCOREINIT:1200,8510
SCOREDIFF:573
#START
0,
0,
1000000010001001,
00001100,
2220,
1220,
1120,
0, //8
11,
12,
12,
1001,
12,
12,
1111,
1000000000000002, //16
01,
12,
12,
1001,
12,
12,
1111,
1000000000000001, //24
0000100010000001,
0120,
1000200010000001,
0000100020000001,
0000100010000001,
0120,
1000200010000005,
000000000000000000000008000000000000000000000000, //32
#GOGOSTART
1121,
500000000000000000000008000000000000000000000000,
1001000020020000,
3330,
1121,
7008,
34,
30001110, //40
1121,
500000000000000000000008000000000000000000000000,
1001000020020000,
3330,
1121,
7008,
1001000020020000,
30001110,
#GOGOEND
30010050,
000000000000000000000000000008000000000000200000,
0,
0, //52
#END

COURSE:Easy
LEVEL:3
BALLOON:5,5
SCOREINIT:1060,12150
SCOREDIFF:710
#START
0,
0,
1000000010000001,
01,
1110,
12,
1110,
12, //8
1,
1,
1,
1,
11,
11,
1110,
1000000000000001, //16
0,
1,
1,
1,
11,
11,
1110,
1000000000000001, //24
0000000010000001,
02,
1000000010000001,
0000000020000001,
0000000010000001,
02,
1000100010000005,
000000000000000000000008000000000000000000000000, //32
#GOGOSTART
1110,
500000000000000000000008000000000000000000000000,
34,
33,
1120,
7008,
34,
33, //40
1110,
500000000000000000000008000000000000000000000000,
34,
33,
1120,
7008,
34,
3,
#GOGOEND
3005,
000000000000000000000000000008000000000000200000,
0,
0, //52
#END
