//TJADB Project
TITLE:Re:End of a Dream
TITLEJA:Re:End of a Dream
SUBTITLE:uma vs. Morimori Atsushi
SUBTITLEJA:uma vs. モリモリあつし
BPM:212
WAVE:Re End of a Dream.ogg
OFFSET:-1.651
DEMOSTART:19.756 //SONG_ID:mmaeod

COURSE:Edit
LEVEL:10
BALLOON:
SCOREINIT:1000
SCOREDIFF:0
#START
21212221,
0020000000000011,
21211221,
02011010,
21212221,
0020000000000011,
21211221,
0020000011112222,
1011201000121010,
2012201000221020,
2011201000121010,
100100200000100000200000000000200000202020200000,
1011201000121010,
2012201000221020,
2011201000121010,
333333, //16
101010100100
#GOGOSTART
200000100200000000100200100000100000,
2012201020221022,
2011201200121010,
100100200000100000200000200000200200101010100000,
1011201200121010,
2012201020221022,
2011201200121010,
#GOGOEND
22221022,
10010220,
22220022,
10010222,
220000000000200000200000,
10110220,
20220110,
1000001110000011,
1333, //32
1011
#GOGOSTART
102012012112,
1021012012012112,
1022012012012112,
2202212212221020,
1022203000212121,
1220003000212121,
1000111110100010,
01113020,
#GOGOEND
11110000,
00021021,
11110200,
#MEASURE 11/16
100000
#BPMCHANGE 106
30000,
#MEASURE 4/4
#BPMCHANGE 212
11110000,
00021022,
100100100122200100000000,
#MEASURE 13/16
100000000000000000
#BPMCHANGE 106
400000000
#BPMCHANGE 212
202020200000, //48
#MEASURE 4/4
1010201200201212,
1120201110201020,
1010201101201212,
200000100200000100200000101010200000100000200000,
1000001110000011,
1000001110000011,
101212112212,
100010002000200010001000200000000000200100200100,
#GOGOSTART
100000000100100000200000100100201010100100200000,
0011102011212021,
1001102011211022,
100000200000100000200200100000101010200000200000,
1001102121212120,
100000000100100000200100200100201010200000200000,
#GOGOEND
122122,
111111300200, //64
#GOGOSTART
1020201001221022,
1020201001221020,
100200200100000222200200,
100100200200100100200200100000101010100000000000,
44030403,
0011101010112020,
3003004030030040,
3003004030004000,
#GOGOEND
1,
0001,
1,
1022,
1000102010101222,
1000102010102121,
212121, //79
#MEASURE 1/16
5,
#MEASURE 1/32
0,
#MEASURE 1/64
0,
#MEASURE 1/16
0,
#MEASURE 1/32
0,
#MEASURE 1/64
0,
#MEASURE 1/32
0,
0,
#MEASURE 1/64
0,
#MEASURE 1/32
0,
#MEASURE 1/64
0,
0,
0,
#MEASURE 1/32
0,
#MEASURE 1/64
0,
0,
0,
0,
0,
#MEASURE 1/32
0,
#MEASURE 1/64
0,
#MEASURE 1/32
8,
#MEASURE 7/16
0212121, //102
#MEASURE 4/4
2002002022222022,
2002002022222022,
2002002022222022,
1012101110300011,
#GOGOSTART
1001102121212120,
100000000100100000200100200100201010200000200000,
#GOGOEND
122122,
111111300200,
#GOGOSTART
1020201001221022,
1020201001221020,
100200200100000222200200,
100100200200100100200200100000200000101010100000,
44030403,
0011101010112020,
#GOGOEND
0,
0, //118
22020202,
02222210,
#GOGOSTART
3003004030030040,
3003004030004000,
#GOGOEND
101010100100200000100000000000100200100000100000,
2012201000221020,
2011201000121010,
100100200000100000200000000000200000202020200000,
1011201000121010,
2012201000221020,
2011201000121010,
111222,
4000
#GOGOSTART
211121112111,
2211211122112111,
2212112122121121,
200100100100200100100100200010001000200010001000, //134
#GOGOEND
200000200000200000202000000000200200200000200000,
#GOGOSTART
122122122122,
1121211211212112,
100100200200102020100000500000000000000008000000,
#GOGOEND
21212221,
0020000000000011,
21211221,
02011010,
21212221,
0020000000000011,
21211221,
02000000, //146
#END

COURSE:Oni
LEVEL:7
BALLOON:7
SCOREINIT:1660
SCOREDIFF:0
#START
20002002,
02000000,
20002002,
02000000,
20002002,
02000000,
20002002,
02000000,
10210111,
20210210,
10210111,
1020102000222000,
10210111,
20210210,
10210111,
333333, //16
10
#GOGOSTART
210111,
20210210,
10210111,
1020102000222000,
10210111,
20210210,
10210111,
#GOGOEND
22222000,
10010000,
22220000,
10010000,
2022,
10010000,
20220000,
1000001110000011,
1333, //32
1011
#GOGOSTART
100010101010,
1002001002001020,
1001002001001020,
1011,
10210220,
12010220,
1000111110100010,
01113020,
#GOGOEND
11110000,
01,
11110000,
#MEASURE 11/16
100000
#BPMCHANGE 106
30000,
#MEASURE 4/4
#BPMCHANGE 212
11110000,
00021000,
11110000,
#MEASURE 13/16
100000
#BPMCHANGE 106
400
#BPMCHANGE 212
0000, //48
#MEASURE 4/4
11110212,
11212120,
11110212,
11212120,
1000001110000011,
1000001110000011,
101010111111,
111111200000,
#GOGOSTART
1001102010102010,
01121120,
1001102010102020,
10101100,
1001102010101010,
1001102010102020,
#GOGOEND
122122,
111111300200, //64
#GOGOSTART
1020201000222000,
1020201000222000,
1020201000222020,
12212110,
44030403,
01111040,
3003004030030040,
3003004030004000,
#GOGOEND
1,
0001,
1,
1,
1111,
1111,
111111, //79
#MEASURE 1/16
7,
#MEASURE 1/32
0,
#MEASURE 1/64
0,
#MEASURE 1/16
0,
#MEASURE 1/32
0,
#MEASURE 1/64
0,
#MEASURE 1/32
0,
0,
#MEASURE 1/64
0,
#MEASURE 1/32
0,
#MEASURE 1/64
0,
0,
0,
#MEASURE 1/32
0,
#MEASURE 1/64
0,
0,
0,
0,
0,
#MEASURE 1/32
0,
#MEASURE 1/64
0,
#MEASURE 1/32
008,
#MEASURE 7/16
0, //102
#MEASURE 4/4
2,
2,
2,
10103300,
#GOGOSTART
1001102010101010,
1001102010102020,
#GOGOEND
122122,
111111300200,
#GOGOSTART
1020201000222000,
1020201000222000,
1020201000222020,
12212110,
44030403,
01111040,
#GOGOEND
0,
0, //118
22020202,
02222020,
#GOGOSTART
3003004030030040,
3003004030004000,
#GOGOEND
10210111,
20210210,
10210111,
1020102000222000,
10210111,
20210210,
10210111,
111222,
2220
#GOGOSTART
200010101010,
2000222022201000,
1110202011102020,
100100111111, //134
#GOGOEND
1,
#GOGOSTART
111111111100,
1011102000101010,
100000200000100100100000500000000000000008000000,
#GOGOEND
20002002,
02000000,
20002002,
02000000,
20002002,
02000000,
20002002,
02000000, //146
#END

COURSE:Hard
LEVEL:5
BALLOON:7,6,7,9
SCOREINIT:2240
SCOREDIFF:0
#START
20002002,
02000000,
20002002,
02000000,
20002002,
02000000,
20002002,
02000000,
10010110,
20020220,
10010110,
22220220,
10010110,
20020220,
10010110,
333333, //16
10
#GOGOSTART
210110,
10220110,
10210110,
12120000,
10210110,
10220110,
10210110,
#GOGOEND
22222000,
10010000,
2,
10010000,
2,
10010000,
20020000,
11,
1333, //32
10
#GOGOSTART
101110,
1002001002001000,
2001002001002000,
500000000000000000000000000008000000000000000000,
30030220,
40040110,
10101101,
01113020,
#GOGOEND
10010000,
01,
10010000,
#MEASURE 11/16
100000
#BPMCHANGE 106
30000,
#MEASURE 4/4
#BPMCHANGE 212
10010000,
01,
10010000,
#MEASURE 13/16
100000
#BPMCHANGE 106
400
#BPMCHANGE 212
0000, //48
#MEASURE 4/4
10110210,
11102220,
10110210,
11102220,
1000001110000011,
1000001110000000,
111500,
000000000000000000000008000000000000000000000000,
#GOGOSTART
10101121,
01101120,
1001002010101000,
10102200,
1001002010101000,
1001002010101000,
#GOGOEND
111222,
70000800, //64
#GOGOSTART
11110200,
11110200,
11110202,
10101110,
44030403,
01111040,
3003004030030040,
3003004030004000,
#GOGOEND
1,
0001,
1,
1,
1111,
1111,
111111, //79
#MEASURE 1/16
7,
#MEASURE 1/32
0,
#MEASURE 1/64
0,
#MEASURE 1/16
0,
#MEASURE 1/32
0,
#MEASURE 1/64
0,
#MEASURE 1/32
0,
0,
#MEASURE 1/64
0,
#MEASURE 1/32
0,
#MEASURE 1/64
0,
0,
0,
#MEASURE 1/32
0,
#MEASURE 1/64
0,
0,
0,
0,
0,
#MEASURE 1/32
0,
#MEASURE 1/64
0,
#MEASURE 1/32
008,
#MEASURE 7/16
0, //102
#MEASURE 4/4
2,
2,
2,
10103300,
#GOGOSTART
1001002010101000,
1001002010101000,
#GOGOEND
111222,
70000800,
#GOGOSTART
11110200,
11110200,
11110202,
10101110,
44030403,
01111040,
#GOGOEND
0,
0, //118
22020202,
02022020,
#GOGOSTART
3003004030030040,
3003004030004000,
#GOGOEND
10010110,
20020220,
10010110,
22220000,
10010110,
20020220,
10010110,
111222,
20
#GOGOSTART
212120,
20222210,
11221122,
500000000000000000000000000000000000000000000008, //134
#GOGOEND
0,
#GOGOSTART
7008,
10120112,
12121000,
#GOGOEND
20002002,
02000000,
20002002,
02000000,
20002002,
02000000,
20002002,
02000000, //146
#END

COURSE:Normal
LEVEL:5
BALLOON:5,9,5,5,9,6
SCOREINIT:3580
SCOREDIFF:0
#START
20002002,
02000000,
20002002,
02000000,
20002002,
02000000,
20002002,
02000000,
10010010,
20020020,
10010010,
20220000,
10010010,
20020020,
10010010,
500000000000000000000000000000000000000008000000, //16
10
#GOGOSTART
010010,
10010010,
10010010,
20220000,
10010010,
10010010,
10010010,
#GOGOEND
20222000,
10010000,
2,
10010000,
2,
10010000,
20020000,
11,
1333, //32
10
#GOGOSTART
001110,
10001110,
20002220,
500000000000000000000000000008000000000000000000,
30030000,
40040000,
10101101,
0330,
#GOGOEND
10010000,
0,
10010000,
#MEASURE 11/16
100000
#BPMCHANGE 106
30000,
#MEASURE 4/4
#BPMCHANGE 212
10010000,
0,
10010000,
#MEASURE 13/16
200000
#BPMCHANGE 106
400
#BPMCHANGE 212
0000, //48
#MEASURE 4/4
10010010,
10102220,
10010010,
10102220,
11,
11,
5,
000000000000000000000008000000000000000000000000,
#GOGOSTART
10101101,
01102020,
10001110,
10102200,
1001000020002000,
1001000020002000,
#GOGOEND
500000000000000000000000000000000000000008000000,
70000800, //64
#GOGOSTART
10220000,
10220000,
10220000,
10101110,
6,
000000000000000000000000000008000000000000000000,
7,
0830,
#GOGOEND
1,
0001,
1,
1,
1110,
1110,
500000000000000000000000000000000000000008000000, //79
#MEASURE 1/16
7,
#MEASURE 1/32
0,
#MEASURE 1/64
0,
#MEASURE 1/16
0,
#MEASURE 1/32
0,
#MEASURE 1/64
0,
#MEASURE 1/32
0,
0,
#MEASURE 1/64
0,
#MEASURE 1/32
0,
#MEASURE 1/64
0,
0,
0,
#MEASURE 1/32
0,
#MEASURE 1/64
0,
0,
0,
0,
0,
#MEASURE 1/32
0,
#MEASURE 1/64
0,
#MEASURE 1/32
008,
#MEASURE 7/16
0, //102
#MEASURE 4/4
2,
2,
2,
10103300,
#GOGOSTART
1001000020002000,
1001000020002000,
#GOGOEND
500000000000000000000000000000000000000008000000,
70000800,
#GOGOSTART
10220000,
10220000,
10220000,
10101110,
6,
000000000000000000000000000008000000000000000000,
#GOGOEND
0,
0, //118
20020202,
02,
#GOGOSTART
7,
0830,
#GOGOEND
10010010,
20020020,
10010010,
20220000,
10010010,
20020020,
10010010,
500000000000000000000000000000000000000008000000,
20
#GOGOSTART
022020,
20202220,
10101110,
500000000000000000000000000000000000000000000008, //134
#GOGOEND
0,
#GOGOSTART
7008,
10010010,
10111000,
#GOGOEND
20002002,
02000000,
20002002,
02000000,
20002002,
02000000,
20002002,
02000000, //146
#END

COURSE:Easy
LEVEL:5
BALLOON:4,7,3,4,7,4
SCOREINIT:4610
SCOREDIFF:0
#START
20002002,
02000000,
20002002,
02000000,
20002002,
02000000,
20002002,
02000000,
10010000,
20020000,
10010000,
20020000,
10010000,
20020000,
10010000,
500000000000000000000000000008000000000000000000, //16
10
#GOGOSTART
010000,
10010000,
10010000,
20020000,
10010000,
10010000,
10010000,
#GOGOEND
2220,
10010000,
1,
10010000,
1,
10010000,
10010000,
11,
1333, //32
1
#GOGOSTART
010,
1011,
2022,
500000000000000000000000000008000000000000000000,
30030000,
40040000,
10101001,
0330,
#GOGOEND
10010000,
0,
10010000,
#MEASURE 11/16
100000
#BPMCHANGE 106
30000,
#MEASURE 4/4
#BPMCHANGE 212
10010000,
0,
10010000,
#MEASURE 13/16
200000
#BPMCHANGE 106
400
#BPMCHANGE 212
0000, //48
#MEASURE 4/4
10010000,
1120,
10010000,
1120,
11,
11,
5,
000000000000000000000008000000000000000000000000,
#GOGOSTART
10101001,
0110,
1011,
1120,
1011,
1011,
#GOGOEND
500000000000000000000000000000000000000008000000,
70000800, //64
#GOGOSTART
10020000,
10020000,
10020000,
1110,
6,
000000000000000000000000000008000000000000000000,
7,
0830,
#GOGOEND
1,
0001,
1,
1,
11,
11,
500000000000000000000000000000000000000008000000, //79
#MEASURE 1/16
7,
#MEASURE 1/32
0,
#MEASURE 1/64
0,
#MEASURE 1/16
0,
#MEASURE 1/32
0,
#MEASURE 1/64
0,
#MEASURE 1/32
0,
0,
#MEASURE 1/64
0,
#MEASURE 1/32
0,
#MEASURE 1/64
0,
0,
0,
#MEASURE 1/32
0,
#MEASURE 1/64
0,
0,
0,
0,
0,
#MEASURE 1/32
0,
#MEASURE 1/64
0,
#MEASURE 1/32
008,
#MEASURE 7/16
0, //102
#MEASURE 4/4
2,
2,
2,
1130,
#GOGOSTART
1011,
1011,
#GOGOEND
500000000000000000000000000000000000000008000000,
70000800,
#GOGOSTART
10020000,
10020000,
10020000,
1110,
6,
000000000000000000000000000008000000000000000000,
#GOGOEND
0,
0, //118
20020202,
02,
#GOGOSTART
7,
0830,
#GOGOEND
10010000,
20020000,
10010000,
20020000,
10010000,
20020000,
10010000,
500000000000000000000000000008000000000000000000,
2
#GOGOSTART
020,
2220,
1111,
500000000000000000000000000000000000000000000008, //134
#GOGOEND
0,
#GOGOSTART
7008,
10010010,
1110,
#GOGOEND
20002002,
02000000,
20002002,
02000000,
20002002,
02000000,
20002002,
02000000, //146
#END
