TITLE:Brain Power
TITLEJA:Brain Power
SUBTITLE:--NOMA
SUBTITLEJA:NOMA
BPM:170
WAVE:Brain Power.ogg
OFFSET:-2.182
DEMOSTART:72.680 //SONG_ID:brainp

COURSE:Oni
LEVEL:9
BALLOON:
SCOREINIT:1410
SCOREDIFF:0
#START
12101210,
1020100010201120,
12101210,
1020100010201120,
12101210,
1020100010201120,
12101210,
100200100000202020200400, //8
12101212,
1020100010201120,
12101212,
1020100010201120,
3020102010201120,
3020102030201120,
300000200000300000200000101010100100100100100100,
2002002002004040, //16
1010202011102000,
1020112010201120,
1010202011102000,
1020112010201120,
1110200010201120,
1020112011102020,
1110200010201120,
300222300400, //24
1110200010201120,
1110200010201120,
1111201020001120,
1020112011102020,
1110200010201120,
1020112010201120,
1111200010201120,
1020112030004000, //32
#SCROLL 0.8
100000100000202020200200,
1001001022221020,
1000000020202002,
1000101022222220,
1000100020021020,
100100222200,
1000101020002011,
100200101010200100400000, //40
#BPMCHANGE 170.1
#SCROLL 1
1110200010201120,
#BPMCHANGE 170.2
1020112011111020,
#BPMCHANGE 170.37
1110200010201120,
#BPMCHANGE 170.48
1020112011112020,
#BPMCHANGE 170.64
1110200010201120,
#BPMCHANGE 170.82
1020112011111020,
#BPMCHANGE 171.15
1110200010201120,
#BPMCHANGE 171.58
1020112011112020,
#BPMCHANGE 172.22
100100100000200000200000101010100100100100100100,
#BPMCHANGE 172.63
2001201021004000, //50
#BPMCHANGE 173
#GOGOSTART
600008000000200200200200100100100100200200200200,
1212102010112020,
600008000000100100100100200200200200100100100100,
2121202010221020,
600008000000200000200200200000200200000200200200,
1212102010112020,
600008000000100100100000100100000100100000100100,
2121202011202210, //58
600008000000200200200200100100100100200200200200,
1212102010112020,
600008000000100100100100200200200200100100100100,
2121202010221020,
600008000000200000200200200000200200000200200200,
1212102010112020,
600008000000100100100000100100000100100000100100,
2121202011202210, //66
600008000000100100100100200200200200100100200200,
1212102010112020,
600008000000200200200200100100100100200200100100,
2121202010221020,
600008000000100100200200100000200100000100200200,
1212102010112020,
600008000000100100100100200100200100200200200200,
1212112012121120,
100200100200100100200000101010100100200200200000, //75
6,
000000000000000000000000000000000000000000000008,
0,
0,
#GOGOEND
0,
0, //81
#END

COURSE:Hard
LEVEL:6
BALLOON:10,10,10,10,10,10
SCOREINIT:2240
SCOREDIFF:0
#START
12101210,
12101212,
12101210,
12101212,
12101210,
12101212,
12101210,
12102024, //8
12101212,
12101212,
12101212,
12101212,
30121212,
30123012,
3333,
2002002002004000, //16
1110202010002000,
12101212,
1110202010002000,
12101212,
1110200010201000,
12121122,
1110200010201020,
3044, //24
1110200010201020,
1110200010201020,
1110001020001020,
12121122,
1110200010201000,
12121122,
1110200010201020,
12023040, //32
#SCROLL 0.8
1122,
1000001022202020,
10002220,
1000101022202000,
1122,
0122,
1000101020001011,
11102040, //40
#BPMCHANGE 170.1
#SCROLL 1
1110200010201020,
#BPMCHANGE 170.2
1020102011101000,
#BPMCHANGE 170.37
1110200010201020,
#BPMCHANGE 170.48
12121022,
#BPMCHANGE 170.64
1110200010201020,
#BPMCHANGE 170.82
1020102011101000,
#BPMCHANGE 171.15
1110200010201020,
#BPMCHANGE 171.58
1020102011102000,
#BPMCHANGE 172.22
1110102011101110,
#BPMCHANGE 172.63
4444, //50
#BPMCHANGE 173
#GOGOSTART
600000000000000000000000000000000008000000000000,
1110100010102020,
600000000000000000000000000000000008000000000000,
2220200010202010,
7008,
1110100010102020,
7008,
2220200010202010, //58
600000000000000000000000000000000008000000000000,
1110100010102020,
600000000000000000000000000000000008000000000000,
2220200010202010,
7008,
1110100010102020,
7008,
2220200010202010, //66
600000000000000000000000000000000008000000000000,
1110102010102020,
600000000000000000000000000000000008000000000000,
2220102010202010,
7008,
1110102010102020,
7008,
1110200011102000,
1110200011102020, //75
6,
000000000000000000000000000000000000000000000008,
0,
0,
#GOGOEND
0,
0, //81
#END

COURSE:Normal
LEVEL:5
BALLOON:6,6,6,6,6,6
SCOREINIT:4320
SCOREDIFF:0
#START
11,
10001012,
11,
10001012,
11,
10001012,
11,
10002022, //8
11,
10001012,
11,
10001012,
3,
33,
3333,
0, //16
11101010,
0212,
11101010,
00201011,
1102,
10201110,
1102,
3044, //24
1102,
1102,
10011000,
10201110,
1102,
10201011,
1102,
3044, //32
#SCROLL 0.8
1022,
12,
12,
1120,
1122,
0122,
12,
1120, //40
#BPMCHANGE 170.1
#SCROLL 1
1102,
#BPMCHANGE 170.2
10201110,
#BPMCHANGE 170.37
1102,
#BPMCHANGE 170.48
1211,
#BPMCHANGE 170.64
11100020,
#BPMCHANGE 170.82
1211,
#BPMCHANGE 171.15
11100020,
#BPMCHANGE 171.58
1211,
#BPMCHANGE 172.22
11101110,
#BPMCHANGE 172.63
4444, //50
#BPMCHANGE 173
#GOGOSTART
600000000000000000000000000000000008000000000000,
10101110,
600000000000000000000000000000000008000000000000,
20202220,
7008,
10101110,
7008,
20202220, //58
600000000000000000000000000000000008000000000000,
10101110,
600000000000000000000000000000000008000000000000,
20202220,
7008,
10101110,
7008,
20202220, //66
600000000000000000000000000000000008000000000000,
10101210,
600000000000000000000000000000000008000000000000,
20202120,
7008,
10101210,
7008,
3232,
30203330, //75
6,
000000000000000000000000000000000000000000000008,
0,
0,
#GOGOEND
0,
0, //81
#END

COURSE:Easy
LEVEL:4
BALLOON:4,4,4,4,4,4
SCOREINIT:6130
SCOREDIFF:0
#START
11,
1011,
11,
1011,
11,
1011,
11,
12, //8
11,
1011,
11,
1011,
3,
33,
3333,
0, //16
1111,
0202,
1111,
0201,
1102,
0211,
1100,
34, //24
1102,
1102,
11,
0211,
1102,
0201,
1100,
34, //32
#SCROLL 0.8
12,
02,
12,
02,
1120,
0220,
12,
02, //40
#BPMCHANGE 170.1
#SCROLL 1
1102,
#BPMCHANGE 170.2
0211,
#BPMCHANGE 170.37
1102,
#BPMCHANGE 170.48
0201,
#BPMCHANGE 170.64
1102,
#BPMCHANGE 170.82
0211,
#BPMCHANGE 171.15
1102,
#BPMCHANGE 171.58
0211,
#BPMCHANGE 172.22
1100,
#BPMCHANGE 172.63
4444, //50
#BPMCHANGE 173
#GOGOSTART
600000000000000000000000000008000000000000000000,
1011,
600000000000000000000000000008000000000000000000,
2022,
70000800,
1011,
70000800,
2022, //58
600000000000000000000000000008000000000000000000,
1011,
600000000000000000000000000008000000000000000000,
2022,
70000800,
1011,
70000800,
2022, //66
600000000000000000000000000008000000000000000000,
1111,
600000000000000000000000000008000000000000000000,
2222,
70000800,
1111,
70000800,
33,
3033, //75
6,
000000000000000000000000000000000000000000000008,
0,
0,
#GOGOEND
0,
0, //81
#END
