//TJADB Project
TITLE:Donkama 2000
TITLEJA:ドンカマ2000
SUBTITLE:--Linda AI-CUE
BPM:120
WAVE:Donkama 2000.ogg
OFFSET:-4.101
DEMOSTART:75.871

COURSE:Oni
LEVEL:10
SCOREINIT:440
SCOREDIFF:120
#START
200
#SCROLL 1.33
2
#SCROLL 1
20
#SCROLL 1.33
20
#SCROLL 1
2
#SCROLL 1.33
200
#SCROLL 1
200
#SCROLL 1.33
2,
#SCROLL 1
20
#SCROLL 1.33
20
#SCROLL 1
2
#SCROLL 1.33
200
#SCROLL 1
200
#SCROLL 1.33
2
#SCROLL 1
20
#SCROLL 1.33
20,
#SCROLL 1
2
#SCROLL 1.33
200
#SCROLL 1
200
#SCROLL 1.33
2
#SCROLL 1
20
#SCROLL 1.33
20
#SCROLL 1
2
#SCROLL 1.33
200,
#SCROLL 1
200
#SCROLL 1.33
2
#SCROLL 1
20
#SCROLL 1.33
20
#SCROLL 1
2
#SCROLL 1.33
200
#SCROLL 1
200
#SCROLL 1.33
2,
#BPMCHANGE 270
#MEASURE 9/4
#SCROLL 0.5
200000000000
#SCROLL 1
100000000100100
#SCROLL 0.5
200
#SCROLL 1
100000100000100000100000
#SCROLL 0.5
200000
#SCROLL 1
100000000000100000000
#SCROLL 0.5
200
#SCROLL 1
100000100000100000101010,
#SCROLL 0.5
200000
#SCROLL 1
101010100000101010100
#SCROLL 0.5
200
#SCROLL 1
101010100000000000100000
#SCROLL 0.5
200000
#SCROLL 1
100000000000100000100
#SCROLL 0.5
200
#SCROLL 1
100000000000100000000100,
#SCROLL 0.5
200000
#SCROLL 1
100000100000100000100
#SCROLL 0.5
200000000
#SCROLL 1
100000000000100000
#SCROLL 0.5
200000
#SCROLL 1
100000100000100000100
#SCROLL 0.5
200
#SCROLL 1
100000101010100000101010,
#SCROLL 0.5
2000
#SCROLL 1
10101010100000000000100
#SCROLL 0.5
200000
#SCROLL 1
100100000000000100000
#SCROLL 0.5
200000
#SCROLL 1
100100000000100100000
#SCROLL 0.5
200
#SCROLL 1
100000100100101010101010,
#SCROLL 0.5
200000000000
#SCROLL 1
100000000000100
#SCROLL 0.5
200000000
#SCROLL 1
100000100000100000
#SCROLL 0.5
200
#SCROLL 1
101010000101010100000100
#SCROLL 0.5
200
#SCROLL 1
101010101010100000100000,
#MEASURE 31/16
#SCROLL 0.5
2000
#SCROLL 1
10001
#SCROLL 0.5
2
#SCROLL 1
10100010
#SCROLL 0.5
20
#SCROLL 1
1010100
#BPMCHANGE 120
#SCROLL 1.13
200
#SCROLL 0.5
1,
#MEASURE 4/4
#SCROLL 1
200000
#SCROLL 0.5
100000
#SCROLL 1
200
#SCROLL 0.5
100000000
#SCROLL 1
200000
#SCROLL 4
111100
#SCROLL 1
200000
#SCROLL 0.5
100000,
#SCROLL 1
2
#SCROLL 0.5
100
#SCROLL 1
200
#SCROLL 0.5
1
#SCROLL 1
20
#SCROLL 0.5
10
#SCROLL 1
2
#SCROLL 0.5
100,
#SCROLL 1
200000000
#SCROLL 0.5
100
#SCROLL 1
200000
#SCROLL 4
111110
#SCROLL 1
200
#SCROLL 0.5
100000000
#SCROLL 1
200000000
#SCROLL 0.5
100,
#SCROLL 1
20
#SCROLL 0.5
10
#SCROLL 1
2
#SCROLL 0.5
100
#SCROLL 1
200
#SCROLL 0.5
1
#SCROLL 1
20
#SCROLL 0.5
10,
#SCROLL 1
200
#SCROLL 4
100111100
#SCROLL 1
200
#SCROLL 0.5
100000000
#SCROLL 1
200000
#SCROLL 7.65
400000000000000000,
#SCROLL 1
2222,
#BPMCHANGE 270
#MEASURE 9/4
#SCROLL 0.5
2000
#SCROLL 1
10001
#SCROLL 0.5
200
#SCROLL 1
101010
#SCROLL 0.5
20
#SCROLL 1
1001101
#SCROLL 0.5
2
#SCROLL 1
10101000,
#SCROLL 0.5
200000
#SCROLL 1
100000100000000000100
#SCROLL 0.5
200
#SCROLL 1
100000100000101010100000
#SCROLL 0.5
2000
#SCROLL 1
10100000101010101010100
#SCROLL 0.5
200
#SCROLL 1
100000000000100000000000,
#SCROLL 0.5
200000000000
#SCROLL 1
100000100000100
#SCROLL 0.5
200000000
#SCROLL 1
101010101010100000
#SCROLL 0.5
200000
#SCROLL 1
100000100000100000000
#SCROLL 0.5
200
#SCROLL 1
100000000000100000000000,
#SCROLL 0.5
200000
#SCROLL 1
100000100000101010100
#SCROLL 0.5
200
#SCROLL 1
101010100000101010101000
#SCROLL 0.5
2000
#SCROLL 1
10100000000000100000000
#SCROLL 0.5
200
#SCROLL 1
100000000000100000100000,
#BPMCHANGE 120
#MEASURE 4/4
2222,
2222,
2222,
2222,
#BPMCHANGE 270
#MEASURE 9/4
#SCROLL 0.5
200000000000
#SCROLL 1
100000000000100
#SCROLL 0.5
200000000
#SCROLL 1
100000100000100000
#SCROLL 0.5
2000
#SCROLL 1
10100000101010100000100
#SCROLL 0.5
200
#SCROLL 0.92
#BPMCHANGE 292.38
101010101010101000000000,
#BPMCHANGE 160
#MEASURE 4/4
#SCROLL 1
222,
222,
200100102100100120100100,
#BPMCHANGE 159.52
#MEASURE 27/16
200020002000200020002000200020002
#BPMCHANGE 160
000200200200100000200000100000200000100000200000,
#MEASURE 4/4
102020100200100200100200,
100020002000100000200000100000200000100200200200,
100200100200100200102020,
100200100200100200102020,
100200100200100200102020,
1020102010201222,
102020100200102020100200,
102020100200102020100200,
102020102020102020100200,
122100
#GOGOSTART
#SCROLL 7.65
400000,
#GOGOEND
#BPMCHANGE 270
#MEASURE 9/4
#SCROLL 0.5
200000000000
#SCROLL 1
100000000100100000100000100000100000100000000000100000000000100000000000100000100000100000101010,
#BARLINEOFF
100111100111111111100000100000100000100100100000100000,
#SCROLL 0.5
#BARLINEON
200
#SCROLL 1
100100100100000100000100000100100100111100111100111,
#BARLINEOFF
101010101010100000000000100000000100100000100000100000100000100000000000100000000100100000100000100000100000,
#BARLINEON
#SCROLL 0.5
200000000000
#SCROLL 1
100000000000100000000000100000100000100000101010100000101010100000101010101010101010100000000020,
#BARLINEOFF
000010000200001000020000100002000010000200001000
#BPMCHANGE 239.74
000000,
#BPMCHANGE 160
#BARLINEON
#MEASURE 4/4
20020020020020
#BPMCHANGE 188.06
00,
#BPMCHANGE 160
12121212,
100200100200100200102020,
100100122100,
100122100100,
100020002000100000000000
#SCROLL 7.65
400000000000
#SCROLL 1
100000000200,
1020120010021020,
12001000
#SCROLL 7.65
40000000,
#BPMCHANGE 270
#SCROLL 1
10101011,
#MEASURE 5/4
100111100111100100111100100100,
#BPMCHANGE 210
#MEASURE 4/4
2222,
#MEASURE 3/4
222,
#BPMCHANGE 270
#MEASURE 4/4
1000101010011001,
#MEASURE 5/4
100100111100111100100100100000,
#BPMCHANGE 160
100200100200100200100200
#BPMCHANGE 120
#SCROLL 1.33
102010,
#MEASURE 4/4
#SCROLL 1
200000
#SCROLL 0.5
100000
#SCROLL 1
200
#SCROLL 0.5
100000000
#SCROLL 1
200000000
#SCROLL 0.5
100
#SCROLL 1
200
#SCROLL 4
100100111,
#SCROLL 1
2
#SCROLL 0.5
100
#SCROLL 1
200
#SCROLL 0.5
1
#SCROLL 1
20
#SCROLL 0.5
10
#SCROLL 1
2
#SCROLL 0.5
100,
#SCROLL 1
200000000
#SCROLL 0.5
100
#SCROLL 1
200000
#SCROLL 0.5
100000
#SCROLL 1
200
#SCROLL 0.5
100000000
#SCROLL 1
200
#SCROLL 4
111100111,
#SCROLL 1
20
#SCROLL 0.5
10
#SCROLL 1
2
#SCROLL 0.5
100
#SCROLL 1
200
#SCROLL 0.5
1
#SCROLL 1
20
#SCROLL 0.5
10,
#SCROLL 1
2
#SCROLL 0.5
100
#SCROLL 1
20
#SCROLL 4
11
#SCROLL 1
20
#SCROLL 0.5
10
#SCROLL 1
2
#SCROLL 0.5
100,
#SCROLL 1
#MEASURE 8/4
200000200000200000
#SCROLL 4
100100
#SCROLL 1
200000200000200000200000200000
#SCROLL 4
101010
#SCROLL 1
200000200000200000
#SCROLL 4
111000
#SCROLL 1
200000200000,
#MEASURE 4/4
20202
#SCROLL 7.65
400,
#BARLINEOFF
#MEASURE 17/16
#SCROLL 1
#BPMCHANGE 78.38
0000000000000000
#BPMCHANGE 5
#SCROLL 0.5
3,
#BPMCHANGE 120
#END

COURSE:Hard
LEVEL:8
SCOREINIT:490
SCOREDIFF:133
#START
2222,
2222,
2222,
2222,
#BPMCHANGE 270
#MEASURE 9/4
#SCROLL 0.5
2000
#SCROLL 1
10001
#SCROLL 0.5
2
#SCROLL 1
10101010
#SCROLL 0.5
20
#SCROLL 1
1000100
#SCROLL 0.5
2
#SCROLL 1
10101000,
#SCROLL 0.5
20
#SCROLL 1
1010101
#SCROLL 0.5
200
#SCROLL 1
100010
#SCROLL 0.5
20
#SCROLL 1
1000101
#SCROLL 0.5
2
#SCROLL 1
10001001,
#SCROLL 0.5
20
#SCROLL 1
1010101
#SCROLL 0.5
200
#SCROLL 1
100010
#SCROLL 0.5
20
#SCROLL 1
1010101
#SCROLL 0.5
2
#SCROLL 1
10101010,
#SCROLL 0.5
20
#SCROLL 1
1010001
#SCROLL 0.5
200
#SCROLL 1
100010
#SCROLL 0.5
20
#SCROLL 1
1100110
#SCROLL 0.5
2
#SCROLL 1
10101010,
#SCROLL 0.5
2000
#SCROLL 1
10001
#SCROLL 0.5
200
#SCROLL 1
101010
#SCROLL 0.5
20
#SCROLL 1
1010100
#SCROLL 0.5
2
#SCROLL 1
10101000,
#MEASURE 31/16
#SCROLL 0.5
2000
#SCROLL 1
10001
#SCROLL 0.5
2
#SCROLL 1
10100010
#SCROLL 0.5
20
#SCROLL 1
1010100
#BPMCHANGE 120
#SCROLL 1.13
200
#SCROLL 0.5
1,
#MEASURE 4/4
#SCROLL 1
20
#SCROLL 0.5
10
#SCROLL 1
2
#SCROLL 0.5
100
#SCROLL 1
200
#SCROLL 0.5
1
#SCROLL 1
20
#SCROLL 0.5
10,
#SCROLL 1
2
#SCROLL 0.5
100
#SCROLL 1
200
#SCROLL 0.5
1
#SCROLL 1
20
#SCROLL 0.5
10
#SCROLL 1
2
#SCROLL 0.5
100,
#SCROLL 1
200
#SCROLL 0.5
1
#SCROLL 1
20
#SCROLL 0.5
10
#SCROLL 1
2
#SCROLL 0.5
100
#SCROLL 1
200
#SCROLL 0.5
1,
#SCROLL 1
20
#SCROLL 0.5
10
#SCROLL 1
2
#SCROLL 0.5
100
#SCROLL 1
200
#SCROLL 0.5
1
#SCROLL 1
20
#SCROLL 0.5
10,
#SCROLL 1
2
#SCROLL 0.5
100
#SCROLL 1
2
#SCROLL 0.5
100
#SCROLL 1
20
#SCROLL 7.65
400000,
#SCROLL 1
2222,
#BPMCHANGE 270
#MEASURE 9/4
#SCROLL 0.5
2000
#SCROLL 1
10001
#SCROLL 0.5
200
#SCROLL 1
101010
#SCROLL 0.5
20
#SCROLL 1
1000101
#SCROLL 0.5
2
#SCROLL 1
10101000,
#SCROLL 0.5
20
#SCROLL 1
1010001
#SCROLL 0.5
2
#SCROLL 1
10101010
#SCROLL 0.5
20
#SCROLL 1
1010101
#SCROLL 0.5
2
#SCROLL 1
10001000,
#SCROLL 0.5
2000
#SCROLL 1
10101
#SCROLL 0.5
200
#SCROLL 1
101010
#SCROLL 0.5
20
#SCROLL 1
1010100
#SCROLL 0.5
2
#SCROLL 1
10001000,
#SCROLL 0.5
20
#SCROLL 1
1010101
#SCROLL 0.5
2
#SCROLL 1
10101010
#SCROLL 0.5
20
#SCROLL 1
1000100
#SCROLL 0.5
2
#SCROLL 1
10001010,
#BPMCHANGE 120
#MEASURE 4/4
2222,
2222,
2222,
2222,
#BPMCHANGE 270
#MEASURE 9/4
#SCROLL 0.5
2000
#SCROLL 1
10001
#SCROLL 0.5
200
#SCROLL 1
101010
#SCROLL 0.5
20
#SCROLL 1
1010101
#SCROLL 0.5
2
#SCROLL 0.92
#BPMCHANGE 292.38
00000000,
#BPMCHANGE 160
#MEASURE 4/4
#SCROLL 1
222,
222,
21111111,
#BPMCHANGE 159.52
#MEASURE 27/16
200020002000200020002000200020002
#BPMCHANGE 160
000000200000100000200000100000200000100000200000,
#MEASURE 4/4
100020100200100200100200,
100000002000100000200000100000200000200200200200,
200200100200100200100020,
100200100200100200100020,
100200100200100200100020,
1020102010202222,
200020100200100020100200,
100020100200100020100200,
100020100020100020100200,
122100
#GOGOSTART
#SCROLL 7.65
400000,
#GOGOEND
#BPMCHANGE 270
#MEASURE 9/4
#SCROLL 0.5
20
#SCROLL 1
1011111010101111,
#BARLINEOFF
111111101010111010,
#BARLINEON
#SCROLL 0.5
2
#SCROLL 1
11110101011111111,
#BARLINEOFF
111010111110101111,
#BARLINEON
#SCROLL 0.5
200000
#SCROLL 1
100000100000100100100100100100100100100100100002,
#BARLINEOFF
000010000200001000020000100002000010000200001000
#BPMCHANGE 239.74
000000,
#BPMCHANGE 160
#BARLINEON
#MEASURE 4/4
20020020020020
#BPMCHANGE 188.06
00,
#BPMCHANGE 160
12121212,
100200100200100200100020,
100100102100,
100102100100,
100000002000100000000000
#SCROLL 7.65
400000000000
#SCROLL 1
100000000200,
0020020010020020,
02001000
#SCROLL 7.65
40000000,
#BPMCHANGE 270
#SCROLL 1
10101011,
#MEASURE 5/4
1111111111,
#MEASURE 4/4
#BPMCHANGE 210
2222,
#MEASURE 3/4
222,
#MEASURE 4/4
#BPMCHANGE 270
10111010,
#MEASURE 5/4
1111111110,
#BPMCHANGE 160
100200100200100200100200
#BPMCHANGE 120
#SCROLL 1.33
102010,
#MEASURE 4/4
#SCROLL 1
20
#SCROLL 0.5
10
#SCROLL 1
2
#SCROLL 0.5
100
#SCROLL 1
200
#SCROLL 0.5
1
#SCROLL 1
20
#SCROLL 0.5
10,
#SCROLL 1
2
#SCROLL 0.5
100
#SCROLL 1
200
#SCROLL 0.5
1
#SCROLL 1
20
#SCROLL 0.5
10
#SCROLL 1
2
#SCROLL 0.5
100,
#SCROLL 1
200
#SCROLL 0.5
1
#SCROLL 1
20
#SCROLL 0.5
10
#SCROLL 1
2
#SCROLL 0.5
100
#SCROLL 1
200
#SCROLL 0.5
1,
#SCROLL 1
20
#SCROLL 0.5
10
#SCROLL 1
2
#SCROLL 0.5
100
#SCROLL 1
200
#SCROLL 0.5
1
#SCROLL 1
20
#SCROLL 0.5
10,
#SCROLL 1
2
#SCROLL 0.5
100
#SCROLL 1
200
#SCROLL 0.5
1
#SCROLL 1
20
#SCROLL 0.5
10
#SCROLL 1
2
#SCROLL 0.5
100,
#SCROLL 1
#MEASURE 8/4
2222222222222222,
#MEASURE 4/4
20202
#SCROLL 7.65
400,
#BARLINEOFF
#MEASURE 17/16
#SCROLL 1
#BPMCHANGE 78.38
0000000000000000
#BPMCHANGE 5
#SCROLL 0.5
3,
#BPMCHANGE 120
#MEASURE 4/4
#SCROLL 1
,
#END

COURSE:Normal
LEVEL:7
SCOREINIT:480
SCOREDIFF:128
#START
2222,
2222,
2222,
2222,
#BPMCHANGE 270
#MEASURE 9/4
#SCROLL 0.5
2000
#SCROLL 1
10000
#SCROLL 0.5
200
#SCROLL 1
100010
#SCROLL 0.5
20
#SCROLL 1
1000100
#SCROLL 0.5
20000
#SCROLL 1
1000,
#SCROLL 0.5
20
#SCROLL 1
1010000
#SCROLL 0.5
200
#SCROLL 1
100010
#SCROLL 0.5
20
#SCROLL 1
1000100
#SCROLL 0.5
20000
#SCROLL 1
1000,
#SCROLL 0.5
20
#SCROLL 1
1010000
#SCROLL 0.5
200
#SCROLL 1
100010
#SCROLL 0.5
20
#SCROLL 1
1000100
#SCROLL 0.5
20000
#SCROLL 1
1000,
#SCROLL 0.5
20
#SCROLL 1
1010000
#SCROLL 0.5
200
#SCROLL 1
100010
#SCROLL 0.5
20
#SCROLL 1
1000100
#SCROLL 0.5
20000
#SCROLL 1
1000,
#SCROLL 0.5
20
#SCROLL 1
1010000
#SCROLL 0.5
200
#SCROLL 1
100010
#SCROLL 0.5
20
#SCROLL 1
1000100
#SCROLL 0.5
20000
#SCROLL 1
1000,
#MEASURE 31/16
#SCROLL 0.5
2000
#SCROLL 1
10000
#SCROLL 0.5
2
#SCROLL 1
00100000
#SCROLL 0.5
20
#SCROLL 1
1000000
#BPMCHANGE 120
#SCROLL 1.13
200
#SCROLL 0.5
1,
#MEASURE 4/4
#SCROLL 1
00
#SCROLL 0.5
100100
#SCROLL 1
200
#SCROLL 0.5
10010,
#SCROLL 1
0
#SCROLL 0.5
100
#SCROLL 1
200
#SCROLL 0.5
100100100,
#SCROLL 1
200
#SCROLL 0.5
100100100
#SCROLL 1
200
#SCROLL 0.5
1,
#SCROLL 1
00
#SCROLL 0.5
100100
#SCROLL 1
200
#SCROLL 0.5
10010,
#SCROLL 1
0
#SCROLL 0.5
1000000
#SCROLL 1
20
#SCROLL 7.65
400000,
#SCROLL 1
2222,
#BPMCHANGE 270
#MEASURE 9/4
#SCROLL 0.5
2000
#SCROLL 1
10000
#SCROLL 0.5
200
#SCROLL 1
100010
#SCROLL 0.5
20
#SCROLL 1
1000100
#SCROLL 0.5
20000
#SCROLL 1
1000,
#SCROLL 0.5
20
#SCROLL 1
1010000
#SCROLL 0.5
200
#SCROLL 1
100010
#SCROLL 0.5
20
#SCROLL 1
1000100
#SCROLL 0.5
20000
#SCROLL 1
1000,
#SCROLL 0.5
20
#SCROLL 1
1010000
#SCROLL 0.5
200
#SCROLL 1
100010
#SCROLL 0.5
20
#SCROLL 1
1000100
#SCROLL 0.5
20000
#SCROLL 1
1000,
#SCROLL 0.5
20
#SCROLL 1
1010000
#SCROLL 0.5
200
#SCROLL 1
100010
#SCROLL 0.5
20
#SCROLL 1
1000100
#SCROLL 0.5
20000
#SCROLL 1
1000,
#BPMCHANGE 120
#MEASURE 4/4
2222,
2222,
2222,
2222,
#BPMCHANGE 270
#MEASURE 9/4
#SCROLL 0.5
2000
#SCROLL 1
10000
#SCROLL 0.5
200
#SCROLL 1
101010
#SCROLL 0.5
20
#SCROLL 1
1010100
#SCROLL 0.5
2
#SCROLL 0.92
#BPMCHANGE 292.38
00000000,
#BPMCHANGE 160
#MEASURE 4/4
#SCROLL 1
222,
222,
21111111,
#BPMCHANGE 159.52
#MEASURE 27/16
200020000000200020000000200020002
#BPMCHANGE 160
000000200000100000200000100000200000100000200000,
#MEASURE 4/4
100020100000100200100200,
100020100000100200200200,
200200100200100200100020,
100000100200100200100020,
100000100200100200100020,
10121222,
200020100000100020100000,
100020100000100020100000,
100020100020100020100200,
102100
#GOGOSTART
#SCROLL 7.65
400000,
#GOGOEND
#BPMCHANGE 270
#MEASURE 9/4
#SCROLL 0.5
20
#SCROLL 1
1011111010101110,
#BARLINEOFF
111011101010111010,
#BARLINEON
#SCROLL 0.5
2
#SCROLL 1
11110101011101110,
#BARLINEOFF
111010111110101111,
#BARLINEON
#SCROLL 0.5
200000
#SCROLL 1
100000100000100100100000100100100000100100100002,
#BARLINEOFF
000010000200001000020000100002000010000200001000
#BPMCHANGE 239.74
000000,
#BPMCHANGE 160
#BARLINEON
#MEASURE 4/4
20020020020020
#BPMCHANGE 188.06
00,
#BPMCHANGE 160
12121212,
100200100200100200100020,
100100102100,
100102100100,
100000002000100000000000
#SCROLL 7.65
400000000000
#SCROLL 1
100000000200,
0020020010020020,
02001000
#SCROLL 7.65
40000000,
#BPMCHANGE 270
#SCROLL 1
10101011,
#MEASURE 5/4
1011101111,
#MEASURE 4/4
#BPMCHANGE 210
2222,
#MEASURE 3/4
222,
#MEASURE 4/4
#BPMCHANGE 270
10111010,
#MEASURE 5/4
1110111110,
#BPMCHANGE 160
100200100200100200100200
#BPMCHANGE 120
#SCROLL 1.33
102010,
#MEASURE 4/4
#SCROLL 1
20
#SCROLL 0.5
100100
#SCROLL 1
200
#SCROLL 0.5
10010,
#SCROLL 1
0
#SCROLL 0.5
100
#SCROLL 1
200
#SCROLL 0.5
100100100,
#SCROLL 1
200
#SCROLL 0.5
100100100
#SCROLL 1
200
#SCROLL 0.5
1,
#SCROLL 1
00
#SCROLL 0.5
100100
#SCROLL 1
200
#SCROLL 0.5
10010,
#SCROLL 1
0
#SCROLL 0.5
100
#SCROLL 1
200
#SCROLL 0.5
100100100,
#SCROLL 1
#MEASURE 8/4
2222222222222222,
#MEASURE 4/4
20202
#SCROLL 7.65
400,
#BARLINEOFF
#MEASURE 17/16
#SCROLL 1
#BPMCHANGE 78.38
0000000000000000
#BPMCHANGE 5
#SCROLL 0.5
3,
#BPMCHANGE 120
#MEASURE 4/4
#SCROLL 1
,
#END

COURSE:Easy
LEVEL:5
SCOREINIT:360
SCOREDIFF:100
#START
2222,
2222,
2222,
2222,
#BPMCHANGE 270
#MEASURE 9/4
#SCROLL 0.5
2000
#SCROLL 1
10000
#SCROLL 0.5
200000000200000000200000000,
2000
#SCROLL 1
10000
#SCROLL 0.5
200000000200000000200000000,
2000
#SCROLL 1
10000
#SCROLL 0.5
200000000200000000200000000,
2000
#SCROLL 1
10000
#SCROLL 0.5
200000000200000000200000000,
2000
#SCROLL 1
10000
#SCROLL 0.5
200000000200000000200000000,
#MEASURE 31/16
#SCROLL 0.5
2000
#SCROLL 1
10000
#SCROLL 0.5
200000000200000000
#BPMCHANGE 120
#SCROLL 1.13
200
#SCROLL 0.5
1,
#MEASURE 4/4
#SCROLL 1
00
#SCROLL 0.5
000100
#SCROLL 1
200
#SCROLL 0.5
10000,
#SCROLL 1
0
#SCROLL 0.5
100
#SCROLL 1
200
#SCROLL 0.5
100000100,
#SCROLL 1
200
#SCROLL 0.5
100000100
#SCROLL 1
200
#SCROLL 0.5
1,
#SCROLL 1
00
#SCROLL 0.5
000100
#SCROLL 1
200
#SCROLL 0.5
10000,
#SCROLL 1
0
#SCROLL 0.5
1000000
#SCROLL 1
20
#SCROLL 7.65
400000,
#SCROLL 1
2222,
#BPMCHANGE 270
#MEASURE 9/4
#SCROLL 0.5
2000
#SCROLL 1
10000
#SCROLL 0.5
200000000200000000200000000,
2000
#SCROLL 1
10000
#SCROLL 0.5
200000000200000000200000000,
2000
#SCROLL 1
10000
#SCROLL 0.5
200000000200000000200000000,
2000
#SCROLL 1
10000
#SCROLL 0.5
200000000200000000200000000,
#BPMCHANGE 120
#MEASURE 4/4
#SCROLL 1
2222,
2222,
2222,
2222,
#BPMCHANGE 270
#MEASURE 9/4
#SCROLL 0.5
2000
#SCROLL 1
10000
#SCROLL 0.5
2000000002000000002
#SCROLL 0.92
#BPMCHANGE 292.38
00000000,
#BPMCHANGE 160
#MEASURE 4/4
#SCROLL 1
222,
222,
11101110,
#BPMCHANGE 159.52
#MEASURE 27/16
200000000000200000000000200000002
#BPMCHANGE 160
000000200000100000000000100000000000100000000000,
#MEASURE 4/4
1111,
10101022,
2111,
10101210,
1111,
10101022,
2111,
10101210,
10101012,
11
#GOGOSTART
#SCROLL 7.65
40,
#GOGOEND
#BPMCHANGE 270
#MEASURE 9/4
#SCROLL 0.5
20
#SCROLL 1
1010111010101010,
#BARLINEOFF
101011101010101010,
#BARLINEON
#SCROLL 0.5
2
#SCROLL 1
01010101011101010,
#BARLINEOFF
101010101110101010,
#BARLINEON
#SCROLL 0.5
20
#SCROLL 1
1010111010101010,
#BARLINEOFF
000010000000001000000000100000000010000000001000
#BPMCHANGE 239.74
000000,
#BPMCHANGE 160
#BARLINEON
#MEASURE 4/4
20020020020020
#BPMCHANGE 188.06
00,
#BPMCHANGE 160
12101210,
12101210,
1111,
1111,
11
#SCROLL 7.65
4
#SCROLL 1
1,
02001002,
01
#SCROLL 7.65
40,
#BPMCHANGE 270
#SCROLL 1
10101011,
#MEASURE 5/4
1010101110,
#MEASURE 4/4
#BPMCHANGE 210
2222,
#MEASURE 3/4
222,
#MEASURE 4/4
#BPMCHANGE 270
1111,
#MEASURE 5/4
1110111010,
#BPMCHANGE 160
100200100000100200100000
#BPMCHANGE 120
#SCROLL 1.33
102010,
#MEASURE 4/4
#SCROLL 1
20
#SCROLL 0.5
100000
#SCROLL 1
200
#SCROLL 0.5
10010,
#SCROLL 1
0
#SCROLL 0.5
000
#SCROLL 1
200
#SCROLL 0.5
100100000,
#SCROLL 1
200
#SCROLL 0.5
100100000
#SCROLL 1
200
#SCROLL 0.5
1,
#SCROLL 1
00
#SCROLL 0.5
100000
#SCROLL 1
200
#SCROLL 0.5
10010,
#SCROLL 1
0
#SCROLL 0.5
000
#SCROLL 1
200
#SCROLL 0.5
100100000,
#SCROLL 1
#MEASURE 8/4
2222222222222222,
#MEASURE 4/4
20202
#SCROLL 7.65
400,
#BARLINEOFF
#MEASURE 17/16
#SCROLL 1
#BPMCHANGE 78.38
0000000000000000
#BPMCHANGE 5
#SCROLL 0.5
3,
#BPMCHANGE 120
#MEASURE 4/4
#SCROLL 1
,
#END
