TITLE:Zenryoku King
TITLEJA:全力キング
SUBTITLE:--Ohsama Sentai Kingohger
SUBTITLEJA:「王様戦隊キングオージャー」より
BPM:200
WAVE:Zenryoku King.ogg
OFFSET:-1.585
DEMOSTART:54.923 //SONG_ID:kingja

COURSE:Oni
LEVEL:6
BALLOON:18,19,10,10
SCOREINIT:3230
SCOREDIFF:0
#START
#SCROLL 0.8
10101201,
01010200,
10101201,
01010222,
10101201,
01010200,
10101201,
01010222, //8
11112222,
11112222,
7,
00008222,
11221122,
01112211,
01112121,
32230222, //16
10102021,
01020201,
1000000000000011,
12020202,
11221122,
01112211,
01112121,
32230111, //24
10102021,
01020201,
111111,
1000000022202020,
11101122,
0011101010201020,
11101122,
01111212, //32
11111212,
01111212,
11111212,
0011101010201020,
1500,
000000000000000000000000000000000008000000000000,
7,
00000820,
11022011,
02401110,
11022011,
02402222,
0122, //45
#GOGOSTART
6,
000000000000000000000008000000200000200000200000,
11112022,
01102020,
6,
000000000000000000000008000000200000200000200000,
11112022,
0010100022202020, //53
10112211,
01102011,
01112222,
11010220,
30230270,
0082,
30230270,
0083,
3,
#GOGOEND
0,
0, //64
#END

COURSE:Hard
LEVEL:3
BALLOON:14,14,7,7
SCOREINIT:6770
SCOREDIFF:0
#START
#SCROLL 0.8
10001001,
00010000,
10001002,
00020000,
10001001,
00010000,
10001002,
00020000, //8
10001001,
00010000,
7,
00000800,
10102001,
00102001,
0122,
30030000, //16
10102021,
01020201,
1,
02020000,
10102001,
00102001,
0122,
30030000, //24
10102021,
01020201,
500000000000000000000000000000000000000000000008,
0,
1112,
01101020,
1112,
01101020, //32
1122,
01102020,
1122,
01102020,
0500,
000000000000000000000000000000000008000000000000,
7,
00000800,
11011011,
0400,
11011011,
0400,
0, //45
#GOGOSTART
6,
000000000000000000000008000000000000000000000000,
10112011,
01100000,
6,
000000000000000000000008000000000000000000000000,
10112011,
01100000, //53
10102001,
00102001,
0122,
11010000,
30030070,
08,
30030070,
0083,
3,
#GOGOEND
0,
0, //64
#END

COURSE:Normal
LEVEL:2
BALLOON:10,10,5,5
SCOREINIT:13940
SCOREDIFF:0
#START
#SCROLL 0.8
1,
0,
10000001,
0,
1,
0,
10000001,
0, //8
1,
0,
7,
00000800,
10001001,
00001001,
01,
30030000, //16
10101001,
01010000,
1,
02020000,
10001001,
00001001,
01,
30030000, //24
10101001,
01010000,
500000000000000000000000000000000000000000000008,
0,
11,
01,
11,
01, //32
22,
02,
22,
02,
0500,
000000000000000000000000000008000000000000000000,
7,
00000800,
11,
0400,
11,
0400,
0, //45
#GOGOSTART
6,
000000000000000000000008000000000000000000000000,
10001001,
0100,
6,
000000000000000000000008000000000000000000000000,
10001001,
0100, //53
0500,
0,
000000000000000000000008000000000000000000000000,
10010000,
30030070,
08,
30030070,
08,
3,
#GOGOEND
0,
0, //64
#END

COURSE:Easy
LEVEL:1
BALLOON:8,8,7,7
SCOREINIT:24780
SCOREDIFF:0
#START
#SCROLL 0.8
1,
0,
1,
0,
1,
0,
1,
0, //8
1,
0,
7,
00000800,
11,
01,
01,
3, //16
11,
0,
1,
0,
11,
01,
01,
3, //24
11,
0,
500000000000000000000000000008000000000000000000,
1,
11,
0,
11,
0, //32
11,
0,
11,
0,
0500,
000000000000000000000000000008000000000000000000,
7,
00000800,
11,
0,
11,
0,
0, //45
#GOGOSTART
6,
000000000000000000000008000000000000000000000000,
11,
1,
6,
000000000000000000000008000000000000000000000000,
11,
1, //53
0500,
0,
000000000000000000000008000000000000000000000000,
0,
7,
0800,
7,
0800,
3,
#GOGOEND
0,
0, //64
#END
