//TJADB Project
TITLE:Warera Muteki no Dokon Dan
TITLEJA:われら無敵のドコン団
SUBTITLE:--Kakuichi & Yuuji Masubuchi feat. Chiaki Takahashi
BPM:145
WAVE:Warera Muteki no Dokon Dan.ogg
OFFSET:-1.834
DEMOSTART:63.072

COURSE:Oni
LEVEL:8
BALLOON:10,10
SCOREINIT:530
SCOREDIFF:133
#START
1001101010002000,
1001101010222020,
1001101010202000,
1001101010222020,
#GOGOSTART
1011101110111020,
1011102010221020,
1011102010111020,
1110200011102022,
1022201020221020,
1022202010221020,
1020221040001020,
1011102010111020,
1011101010202210,
#GOGOEND
1001201020211020,
1001201020221020,
1011201010112010,
3030003030202210,
1001201020211020,
1122102010221020,
1011201010112010,
30343004,
1110222011202210,
1110222011202210,
1120112011201120,
1120112011221020,
1120112011201120,
1110222011102220,
34113411,
600000000000000000000000000000000008000000000000,
44444040,
300000000000300000600000000000000008000000000000,
44444040,
300000300000300000600000000000000008000000000000,
1011101020222020,
1011101000221000,
1011201010112010,
70000080,
#GOGOSTART
1011202110202210,
1011202110202210,
1011201110112011,
1011201110112010,
00333003,
6,
000000000000000000000008000000000000000000000000,
#GOGOEND
1120112011201120,
1120112011221020,
1120112011201120,
1110222011102220,
34113411,
600000000000000000000000000000000008000000000000,
33333030,
400000000000400000600000000000000008000000000000,
3333,
400000400000400000600000000000000008000000000000,
1011101020222020,
1011101000221000,
1011201010112010,
70000080,
#GOGOSTART
1011202110202210,
1011202110202210,
1011201110112011,
1011201110112010,
00333003,
6,
000000000000000000000000000000000008000000000000,
33034043,
1111222011202210,
1122101020004000,
#GOGOEND
#END

COURSE:Hard
LEVEL:5
SCOREINIT:730
SCOREDIFF:218
#START
100000000100100000100000100000000000000000000000,
100000000100100000100000100000000000000000000000,
100000000100100000100000100000000000000000000000,
100000000100100000100000100000000000000000000000,
#GOGOSTART
100000000000000000100000100000000000200000000000,
100000000000100000100000200000000000200000000000,
100000000000000000100000100000000000100000100000,
500000000000000000000000000800000000000000000000,
100000200000200000200000200000000000000000000000,
100000200000200000200000100000000000000000000000,
300000300000000000300000300000000000300000000000,
600000000000000000000000000000000000000800000000,
000000000000000000000000000000000000000000000000,
#GOGOEND
100000000000100000100000100000000000200000000000,
100000000000100000100000200000000000000000000000,
100000000000100000100000100000000000200000000000,
300000300000000000300000300000000000000000000000,
100000000000100000100000100000000000200000000000,
100000100000100000200000200000000000000000000000,
100000000000100000100000200000000000200000000000,
400000000000300000000000300000000000000000000000,
600000000000000000000000000000000000000800000000,
000000000000000000000000000000000000000000000000,
100000000000000000100000100000100000200000000000,
100000000000000000100000100000000000200000000000,
100000000000000000100000100000100000200000000000,
400000000000400000000000400000000000400000000000,
300000300000000000000000300000300000000000000000,
600000000000000000000800000000000000000000000000,
100000000000100000100000200000000000200000000000,
100000000000100000100000000000000000000000000000,
100000000000100000100000200000000000200000000000,
100000200000200000100000000000000000000000000000,
100000100000000000100000100000000000200000200000,
100000100000200000200000000000100000100000000000,
000000100000100000000000100000100000200000000000,
100000100100100000000000000000000000000000000000,
#GOGOSTART
100000100100100000100100100000100000000000000000,
200000200200200000200000100000100000000000000000,
100000200000200000200000200000200000200000200000,
200000100000100000100000100000100000100000100000,
000000000000300000000000000000000000000000000000,
600000000000000000000000000000000000000000000000,
000000000800000000000000000000000000000000000000,
#GOGOEND
100000000000000000100000100000100000200000000000,
100000000100100000100000100000000000200000000000,
100000000000000000100000100000100000200000000000,
100000100100100000100100100000100100100000000000,
300000300000000000000000300000300000000000000000,
600000000000000000000800000000000000000000000000,
100000000000100000100000200000000000200000000000,
100000000000100000100000000000000000000000000000,
100000000000100000100000200000000000200000000000,
100000200000200000100000000000000000000000000000,
100000100000000000100000100000000000200000200000,
100000100000200000200000000000100000100000000000,
000000100000100000000000100000100000200000000000,
300000000000000000000000000000000000000000000000,
#GOGOSTART
100000100100100000100100100000100000000000000000,
200000200200200000200000100000100000000000000000,
100000200000200000200000200000200000200000200000,
200000100000100000100000100000100000100000100000,
000000000000300000000000000000000000000000000000,
600000000000000000000000000000000000000000000000,
000000000800000000000000000000000000000000000000,
100000100000000000100000100000000000200000000000,
100000000000100000000000100000000100100000000000,
100000000100100000100000100000000000200000000000,
#GOGOEND
#END

COURSE:Normal
LEVEL:4
SCOREINIT:1020
SCOREDIFF:320
#START
000000000000000000000000000000000000200000000000,
000000000000000000000000000000000000200000000000,
000000000000000000000000000000000000200000000000,
000000000000000000000000400000000000000000000000,
#GOGOSTART
100000000000000000000000100000000000000000000000,
100000000000100000000000100000000000000000000000,
100000000000000000000000100000000000000000000000,
500000000000000000000000800000000000000000000000,
000000000000200000000000200000000000000000000000,
000000000000100000000000100000000000000000000000,
600000000000000000000000000000000000800000000000,
000000000000000000000000000000000000000000000000,
000000000000000000000000000000000000000000000000,
#GOGOEND
100000000000000000000000100000000000000000000000,
100000000000100000000000100000000000000000000000,
100000000000000000000000100000000000000000000000,
300000000000300000000000300000000000000000000000,
100000000000000000000000100000000000000000000000,
100000000000100000000000100000000000000000000000,
100000000000000000000000100000000000000000000000,
300000000000300000000000300000000000000000000000,
600000000000000000000000000000000000800000000000,
000000000000000000000000000000000000000000000000,
100000000000000000100000100000000000000000000000,
100000000000000000100000100000000000000000000000,
100000000000000000100000100000000000000000000000,
200000000000200000000000200000000000000000000000,
300000300000000000000000300000300000000000000000,
600000000000000000800000000000000000000000000000,
100000000000100000000000100000000000000000000000,
300000000000000000000000000000000000000000000000,
200000000000200000000000200000000000000000000000,
400000000000000000000000000000000000000000000000,
100000100000000000000000100000000000000000000000,
100000000000100000000000000000000000000000000000,
000000100000100000000000100000000000000000000000,
300000000000300000000000000000000000000000000000,
#GOGOSTART
100000000000100000000000300000000000000000000000,
100000000000100000000000300000000000000000000000,
300000000000000000000000000000000000000000000000,
100000000000100000000000100000000000100000000000,
000000000000300000000000000000000000000000000000,
600000000000000000000000000000000000000000000000,
000000000000000000800000000000000000000000000000,
#GOGOEND
100000000000000000100000100000000000000000000000,
100000000000000000100000100000000000000000000000,
200000000000000000200000200000000000000000000000,
100000000000000000000000000000000000000000000000,
300000000000000000000000300000000000000000000000,
600000000000000000800000000000000000000000000000,
100000000000100000000000100000000000000000000000,
300000000000000000000000000000000000000000000000,
200000000000200000000000200000000000000000000000,
400000000000000000000000000000000000000000000000,
100000100000000000000000100000000000000000000000,
100000000000100000000000000000000000000000000000,
000000100000100000000000100000000000000000000000,
300000000000000000000000000000000000000000000000,
#GOGOSTART
100000000000100000000000300000000000000000000000,
100000000000100000000000300000000000000000000000,
300000000000000000000000000000000000000000000000,
100000000000100000000000100000000000100000000000,
000000000000300000000000000000000000000000000000,
600000000000000000000000000000000000000000000000,
000000000000000000800000000000000000000000000000,
100000100000000000100000100000000000000000000000,
100000000000100000000000100000000000000000000000,
100000000000100000000000100000000000200000000000,
#GOGOEND
#END

COURSE:Easy
LEVEL:3
SCOREINIT:790
SCOREDIFF:385
#START
100000000000000000000000000000000000000000000000,
100000000000000000000000000000000000000000000000,
100000000000000000000000000000000000000000000000,
100000000000000000000000000000000000000000000000,
#GOGOSTART
100000000000000000000000100000000000000000000000,
100000000000000000000000000000000000000000000000,
100000000000000000000000100000000000000000000000,
500000000000000000000000800000000000000000000000,
000000000000100000000000100000000000000000000000,
000000000000100000000000100000000000000000000000,
600000000000000000000000000000000000800000000000,
000000000000000000000000000000000000000000000000,
000000000000000000000000000000000000000000000000,
#GOGOEND
100000000000000000000000100000000000000000000000,
100000000000100000000000100000000000000000000000,
100000000000000000000000100000000000000000000000,
300000000000000000000000000000000000000000000000,
100000000000000000000000100000000000000000000000,
100000000000100000000000100000000000000000000000,
100000000000000000000000100000000000000000000000,
000000000000300000000000300000000000000000000000,
600000000000000000000000000000000000800000000000,
000000000000000000000000000000000000000000000000,
100000000000000000000000200000000000000000000000,
100000000000000000000000200000000000000000000000,
100000000000000000000000200000000000000000000000,
100000000000000000000000000000000000000000000000,
300000000000000000000000300000000000000000000000,
600000000000800000000000000000000000000000000000,
100000000000100000000000100000000000000000000000,
300000000000000000000000000000000000000000000000,
200000000000200000000000200000000000000000000000,
400000000000000000000000000000000000000000000000,
100000000000000000000000100000000000000000000000,
100000000000100000000000000000000000000000000000,
100000000000000000000000100000000000000000000000,
300000000000300000000000000000000000000000000000,
#GOGOSTART
100000000000100000000000300000000000000000000000,
100000000000100000000000300000000000000000000000,
300000000000000000000000000000000000000000000000,
100000000000100000000000100000000000100000000000,
000000000000300000000000000000000000000000000000,
600000000000000000000000000000000000000000000000,
800000000000000000000000000000000000000000000000,
#GOGOEND
100000000000000000000000200000000000000000000000,
100000000000000000000000200000000000000000000000,
100000000000000000000000200000000000000000000000,
100000000000000000000000000000000000000000000000,
300000000000000000000000300000000000000000000000,
600000000000800000000000000000000000000000000000,
100000000000100000000000100000000000000000000000,
300000000000000000000000000000000000000000000000,
200000000000200000000000200000000000000000000000,
400000000000000000000000000000000000000000000000,
100000000000000000000000100000000000000000000000,
100000000000100000000000000000000000000000000000,
100000000000000000000000100000000000000000000000,
300000000000000000000000000000000000000000000000,
#GOGOSTART
100000000000100000000000300000000000000000000000,
100000000000100000000000300000000000000000000000,
300000000000000000000000000000000000000000000000,
100000000000100000000000100000000000100000000000,
000000000000300000000000000000000000000000000000,
600000000000000000000000000000000000000000000000,
800000000000000000000000000000000000000000000000,
100000000000000000000000100000000000000000000000,
100000000000100000000000100000000000000000000000,
100000000000100000000000100000000000200000000000,
#GOGOEND
#END
