//TJADB Project
TITLE:Yumeutsutsu Catharsis
TITLEJA:夢うつつカタルシス
SUBTITLE:--Kanaya Ohki (BNSI) feat. Kaori Aihara
SUBTITLEJA:大木奏弥(BNSI) feat. 愛原圭織
BPM:105.5
WAVE:Yumeutsutsu Catharsis.ogg
OFFSET:-2.306
DEMOSTART:64.257 //Shinuchi:
9040/6060/3840/2210

COURSE:Oni
LEVEL:8
BALLOON:15
SCOREINIT:720,2280
SCOREDIFF:195
#START
#MEASURE 7/8
#SCROLL 1.33
0,
10020201020202,
10020202122020,
#GOGOSTART
30112001011020,
10112001021120,
10112001011020,
10122102121120, //7
#GOGOEND
30010020011022,
1222122,
10010020011022,
1221222,
10010020011022,
1222122,
10010020011022,
10202010202220, //15
10012021011022,
10212011122020,
10210021011022,
01202012122020,
10012021011022,
10212011122020,
10012021011022,
10212012122220, //23
10040001022200,
000100200020000100020002000100000000200200,
10020201020220,
01000100021111,
10020221011201,
12200201020202,
10020122012201,
#MEASURE 4/4
2212230000000000, //31
#GOGOSTART
1001012101202010,
#MEASURE 5/8
0201102220,
#MEASURE 4/4
1001012101202010,
#MEASURE 5/8
0101102222,
#MEASURE 4/4
1001012101202010,
#MEASURE 5/8
0101102220,
#MEASURE 4/4
1001012101202050,
#MEASURE 5/8
0000805080, //39
#MEASURE 4/4
1001012101212011,
#MEASURE 5/8
0201102220,
#MEASURE 4/4
1001012101212030,
#MEASURE 5/8
0101140223,
#MEASURE 4/4
0001012101212011,
#MEASURE 5/8
0101102220,
#MEASURE 7/8
11020211020212,
11020211020212, //47
#GOGOEND
30070000000080,
01000100020020,
500000000000000000000000000000000000008000,
01000100020020,
500000000000000000000000000000000000008000,
01000100020020,
500000000000000000000000000000000000008000,
02000200020000, //55
#SCROLL 2
#GOGOSTART
30112211021022,
10112211021122,
10112211021022,
10122114121121,
#GOGOEND
#SCROLL 1.33
00000300000000,
0,
#MEASURE 4/4
0, //62
#END

COURSE:Hard
LEVEL:6
BALLOON:31,39,14,14,14
SCOREINIT:1000,4140
SCOREDIFF:288
#START
#MEASURE 7/8
#SCROLL 1.33
0,
7,
0000800,
#GOGOSTART
30002001010020,
10002001011020,
10002001010020,
10002001011110, //7
#GOGOEND
10010020000000,
0222122,
10010020000000,
0221222,
10010020000000,
0222122,
10010020000000,
0221220, //15
10010020011020,
0222122,
10010020011020,
0221222,
10010020011020,
0222122,
10010020011020,
0221220, //23
10040001000000,
000200200000000200020000000200000000000000,
10020001000000,
02000200011110,
10020001000201,
11100202020000,
10050000000000,
#MEASURE 4/4
000000008000000300000000000000000000000000000000, //31
#GOGOSTART
1001002000202010,
#MEASURE 5/8
0200102000,
#MEASURE 4/4
1001002000202010,
#MEASURE 5/8
0100102000,
#MEASURE 4/4
1001002000202010,
#MEASURE 5/8
0100102000,
#MEASURE 4/4
1001002000202050,
#MEASURE 5/8
00820, //39
#MEASURE 4/4
1001002000202010,
#MEASURE 5/8
0200102000,
#MEASURE 4/4
1001002000202010,
#MEASURE 5/8
0000040003,
#MEASURE 4/4
0001002000202010,
#MEASURE 5/8
0100102000,
#MEASURE 7/8
9,
09, //47
#GOGOEND
8,
01000100020020,
7000080,
01000100020020,
7000080,
01000100020020,
7000080,
02000200020000, //55
#GOGOSTART
10102001001020,
10102001011020,
10102001001020,
10102203011111,
#GOGOEND
00000300000000,
0,
#MEASURE 4/4
0, //62
#END

COURSE:Normal
LEVEL:5
BALLOON:18,13,13,13,23,8,8,8
SCOREINIT:1200,6670
SCOREDIFF:413
#START
#MEASURE 7/8
#SCROLL 1.33
0,
7,
0000800,
#GOGOSTART
30001001000000,
10001001010000,
10001001000000,
10001001010000, //7
#GOGOEND
10010010000000,
0220220,
10010010000000,
0220220,
10010010000000,
0220220,
10010010000000,
0220220, //15
10010010000000,
0222220,
10010010000000,
0222220,
10010010000000,
0222220,
10010010000000,
0222220, //23
10070000000000,
00000800000000,
10070000000000,
00000800000000,
10070000000000,
00000800000000,
10050000000000,
#MEASURE 4/4
000000008000000300000000000000000000000000000000, //31
#GOGOSTART
10010111,
#MEASURE 5/8
0200002000,
#MEASURE 4/4
10010111,
#MEASURE 5/8
00020,
#MEASURE 4/4
10010111,
#MEASURE 5/8
00020,
#MEASURE 4/4
10010115,
#MEASURE 5/8
000000000000000008000000000000, //39
#MEASURE 4/4
10010111,
#MEASURE 5/8
0200002000,
#MEASURE 4/4
10010111,
#MEASURE 5/8
0000040003,
#MEASURE 4/4
00010111,
#MEASURE 5/8
00020,
#MEASURE 7/8
9,
09, //47
#GOGOEND
8,
01000100010010,
7000080,
01000100010010,
7000080,
01000100010010,
7000080,
0, //55
#GOGOSTART
10001001001000,
10001002020000,
10001001001000,
100000000000100000000500000000000000008000,
#GOGOEND
00000300000000,
0,
#MEASURE 4/4
0, //62
#END

COURSE:Easy
LEVEL:4
BALLOON:15,11,11,11,19,7,7,7
SCOREINIT:1070,10090
SCOREDIFF:555
#START
#MEASURE 7/8
#SCROLL 1.33
0,
7,
0000800,
#GOGOSTART
31,
10001001000000,
11,
10001001000000, //7
#GOGOEND
1001000,
0020200,
1001000,
0020200,
1001000,
0020200,
1001000,
0020200, //15
10010010000000,
0020200,
10010010000000,
0020200,
10010010000000,
0020200,
10010010000000,
0020200, //23
10070000000000,
00000800000000,
10070000000000,
00000800000000,
10070000000000,
00000800000000,
100000000500000000000000000000000000000008,
#MEASURE 4/4
0000030000000000, //31
#GOGOSTART
10010001,
#MEASURE 5/8
00020,
#MEASURE 4/4
10010001,
#MEASURE 5/8
00020,
#MEASURE 4/4
10010001,
#MEASURE 5/8
00020,
#MEASURE 4/4
10010005,
#MEASURE 5/8
000000000000000008000000000000, //39
#MEASURE 4/4
10010001,
#MEASURE 5/8
00020,
#MEASURE 4/4
10010001,
#MEASURE 5/8
0000040003,
#MEASURE 4/4
00010001,
#MEASURE 5/8
00020,
#MEASURE 7/8
9,
09, //47
#GOGOEND
8,
01000100010000,
7000080,
01000100010000,
7000080,
01000100010000,
7000080,
0, //55
#GOGOSTART
10001001000000,
10001001000000,
10001001000000,
100000000000100000000500000000000000008000,
#GOGOEND
00000300000000,
0,
#MEASURE 4/4
0, //62
#END
