//TJADB Project
TITLE:AtoZ,I leave toZ
TITLEJA:AtoZ,I leave toZ
SUBTITLE:--Dr.Laintrigger Demo:MonA"/Synchronica
SUBTITLEJA:Dr.Laintrigger Demo:MonA" 「シンクロニカ」より
BPM:190
WAVE:AtoZ,I leave toZ.ogg
OFFSET:-2.179
DEMOSTART:32.486 //SONG_ID:syatoz

COURSE:Oni
LEVEL:9
BALLOON:11
SCOREINIT:1320
SCOREDIFF:0
#START
#MEASURE 8/4
#SCROLL 0.5
2002002222202200,
20000020000020222020202020202020,
2002002022202022,
2112112170000080,
10001110200010001000111020002020,
10001110200010001111101020002020,
10111010202220201022102010112020,
10112020102210201111202011112000,
10111010200010201000202010002020,
10111010200010201011201000202020,
10111010202220201011201020221020,
10201111102011111111111120000000, //12
#GOGOSTART
10001010221020101000102011202010,
10001010221020101000102011202010,
10001010221020101010102011202010,
10001010200020201110101011101011,
20001110201020102000300030003000,
10001110221020102000300030004000,
10001110221020100010200020201020,
10101011111110101111101111111111,
#GOGOEND
#SCROLL 0.75
2001001001001000,
00001000000000001111222211112222,
1112221112221112,
10201010202010201111222211221212,
#MEASURE 4/4
04, //25
1000112010100011,
2010001120102022,
1000112010100011,
200000100000000000100100200010002000200010002000,
1000112010100011,
2010001120102022,
1000222211112222,
1020201020102222,
1000202011201120,
1011202010002020,
1000202011201120,
1011202030003000,
1000202011201120,
1011202010002020,
1010101111111010,
1111101111111110, //41
#MEASURE 8/4
#SCROLL 0.5
#GOGOSTART
20001010221020101000102011202010,
10001010221020101000102011202010,
10001010221020101010102011202010,
10001010200020201110101011101011,
20001110221020102000300030003000,
10001110221020102000300030004000,
10001110221020100010200020201020,
11101011101011101011101110102000,
#GOGOEND
20111020111020102011102011102010,
20111020111020102011102011102211,
20121022201210222012102220202020,
20121022201210222012102220202020,
1202101012101022,
1202101012101022,
#BARLINEOFF
0, //56
#END

COURSE:Hard
LEVEL:6
BALLOON:8,18,8,11,4,8
SCOREINIT:2450
SCOREDIFF:0
#START
#MEASURE 8/4
#SCROLL 0.5
0,
2002002022222220,
2002002020202020,
2002002070000080,
1011101010111020,
1011101010111020,
1110222011102220,
100000000000200000000000100000100000100000100000500000000000000000000000000000000008000000000000,
1110201010111020,
1110201011110220,
1110222011102200,
7008, //12
#GOGOSTART
1011110110101101,
1011110110101011,
1011110110101101,
1011101011102220,
1011102220303030,
1011102220303040,
1011110101102010,
1011101011101111,
#GOGOEND
#SCROLL 0.75
1001001001001000,
01007008,
1011022011022011,
1011111170000000,
#MEASURE 4/4
84, //25
10110101,
01011111,
10110101,
01017008,
10110101,
01011110,
30220030,
22011110,
20220202,
02220022,
20220202,
02220000,
20220202,
02220020,
10101011,
7008, //41
#MEASURE 8/4
#SCROLL 0.5
#GOGOSTART
1011110110101101,
1011110110101011,
1011110110101101,
1011101011102220,
1011102220303030,
1011102220303040,
1011110101102010,
1011101011101111,
#GOGOEND
1222,
1000200020002022,
1002200220022220,
1002200220022220,
1101101011101020,
1101101011101022,
#BARLINEOFF
0, //56
#END

COURSE:Normal
LEVEL:4
BALLOON:6,12,5,7,3,3,3,6
SCOREINIT:4510
SCOREDIFF:0
#START
#MEASURE 8/4
#SCROLL 0.5
0,
2002002020000000,
2002002020202000,
2002002070000080,
1001000010102000,
1001000010102000,
10221022,
100000000000000000000000200000000000000000000000500000000000000000000000000000000008000000000000,
11101120,
11101120,
11221120,
7008, //12
#GOGOSTART
1010100100101000,
1010100100101000,
1010100100101000,
11102220,
0010100100101010,
0010200100101020,
0010100100200010,
30030011,
#GOGOEND
#SCROLL 0.75
2001001001001000,
01007008,
1001002001002000,
11117000,
#MEASURE 4/4
84, //25
11,
1011,
11,
13,
11,
1011,
3003,
0011,
20200202,
07008000,
20200202,
07008000,
20200202,
07008000,
1111,
7008, //41
#MEASURE 8/4
#SCROLL 0.5
#GOGOSTART
1010100100101000,
1010100100101000,
1010100100101000,
11102220,
0010100100101010,
0010200100101020,
0010100100200010,
30030011,
#GOGOEND
1222,
10202022,
10202022,
10202022,
10101112,
10101112,
#BARLINEOFF
0, //56
#END

COURSE:Easy
LEVEL:3
BALLOON:5,10,4,6,5
SCOREINIT:7560
SCOREDIFF:0
#START
#MEASURE 8/4
#SCROLL 0.5
0,
2002000020000000,
2002000020002000,
2002000070000080,
1001000010000000,
1001000010000000,
1212,
100000000000000000000000200000000000000000000000500000000000000000000000000008000000000000000000,
1110,
1110,
1212,
7008, //12
#GOGOSTART
100000000000100000000000100000000000000000500000000000000000000000000008000000000000000000000000,
100000000000100000000000100000000000000000500000000000000000000000000008000000000000000000000000,
100000000000100000000000100000000000000000500000000000000000000000000008000000000000000000000000,
1122,
000000000000500000000000000000000000000008000000000000000000100000000000100000000000100000000000,
000000000000500000000000000000000000000008000000000000000000200000000000200000000000200000000000,
000000000000500000000000000000000000000000000000000000000008000000000000000000000000000000000000,
30030011,
#GOGOEND
#SCROLL 0.75
10010010,
01007008,
10010010,
01007000,
#MEASURE 4/4
84, //25
11,
1,
11,
13,
11,
1,
3003,
0011,
11,
1,
11,
1,
11,
1,
1011,
7008, //41
#MEASURE 8/4
#SCROLL 0.5
#GOGOSTART
100000000000100000000000100000000000000000500000000000000000000000000008000000000000000000000000,
100000000000100000000000100000000000000000500000000000000000000000000008000000000000000000000000,
100000000000100000000000100000000000000000500000000000000000000000000008000000000000000000000000,
1122,
000000000000500000000000000000000000000008000000000000000000100000000000100000000000100000000000,
000000000000500000000000000000000000000008000000000000000000200000000000200000000000200000000000,
000000000000500000000000000000000000000000000000000000000008000000000000000000000000000000000000,
30030011,
#GOGOEND
1202,
0202,
1222,
1222,
1011,
1011,
#BARLINEOFF
0, //56
#END
