//TJADB Project
TITLE:GORI × GORI × SafaRI
TITLEJA:GORI × GORI × SafaRI
SUBTITLE:--Nobuyoshi Kobayashi(BNSI)
SUBTITLEJA:小林伸嘉(BNSI)
BPM:272
WAVE:GORI x GORI x SafaRI.ogg
OFFSET:-1.935
DEMOSTART:70.745 //SONG_ID:gorigr

COURSE:Edit
LEVEL:10
BALLOON:16,3
SCOREINIT:950
SCOREDIFF:0
#START
#MEASURE 1/4
#SCROLL 0.5
0,
0,
0,
0,
0,
0,
0,
0,
0,
0,
0,
0,
0,
0,
#MEASURE 2/4
0000
#SCROLL 0.75
2222,
#MEASURE 8/4
200020002000200020002000200000100000200000200000200020002000200000000200000000000200000000000000, //16
#MEASURE 1/4
2,
#SCROLL 0.5
0,
0,
0,
0,
0,
0,
0,
0,
0,
0,
0,
0,
0,
0,
0,
#MEASURE 8/4
#SCROLL 0.75
200020002000200000100000200200200200200020002000200000100000200020002000200000020000000200000000,
#MEASURE 4/4
100000000000000202000000000000100000000000000000, //34
#MEASURE 1/4
#SCROLL 0.5
0,
0,
0,
0,
0,
0,
0,
0,
#MEASURE 8/4
#SCROLL 0.75
200200200200200020002000200020002000200000100000200000200000200020002000200000000000200000000000, //43
#MEASURE 1/4
0200,
#SCROLL 0.5
0,
0,
0,
0,
0,
0,
0,
0,
0,
#MEASURE 2/4
0000
#SCROLL 0.75
2222,
#MEASURE 8/4
202020202020200100200200202020200100202020200020,
002000100000220000200010002000100000220000000000, //56
#MEASURE 4/4
#SCROLL 1
#GOGOSTART
10110110,
10110110,
10110110,
1020100011102020,
10110110,
1010111010002020,
1010221010001010,
1020100010202220,
10110110,
11011022,
10110110,
1020100011102020,
10110110,
1010111010002020,
1010221010001010,
1020100010201120, //72
10110112,
10110110,
10110112,
1020100011102020,
10110112,
1000111020201000,
1000221010001010,
2220101022201010,
1000101010201120,
1000101011202020,
1000101010201120,
1020100022201010,
1000101011201020,
1022101022221000, //86
#GOGOEND
#MEASURE 6/4
#SCROLL 0.5
101010100100000000100100100000101010,
100020202000202220002000,
202010102000202210002020,
100000200200100000200200100000202020,
101010100100000000100100100000101010,
200020002000100000100000000000000000200000200200200000000000200000000000,
202020202000202220002020,
200000100100100000000000200000202020,
101010100100000000100100100000101010,
200000100000100000100000200100100000100000100000200000100000100010001000,
100020201010222010001010,
201010102000101110002020,
100000200100100200100100200100202020,
101010100100000000100000100010101010,
100100200000100000100100200000101010,
200010102011200020002020, //102
#MEASURE 4/4
#SCROLL 1
#GOGOSTART
10110110,
5,
0,
000008000000000000100000100000000000200000200000,
1000101011101010,
1120112010002020,
7,
0008, //110
1110101000101000,
11121112,
1110101000101000,
11221122,
202020200200000200202020,
200200222200,
1110101000101000,
11121112,
1110101000101000,
11221122,
1110202011102020,
111100111100,
1110101000101000,
21112111,
202020100100000100202020,
100100222100,
202020100100000100202020,
100100222100,
1110101000101000,
11121112,
1110201010221010,
1011201010102220,
1110102010201020,
100100100000200000200000100100100100700000000008, //134
#GOGOEND
#BPMCHANGE 150
0,
#BPMCHANGE 152
0,
#BPMCHANGE 154
0,
#BPMCHANGE 155
0,
#BPMCHANGE 157
10202010222010101000222010001020,
#BPMCHANGE 159
00000020000000000000000010102220,
#BPMCHANGE 160
10001010222022201000222010002000,
#BPMCHANGE 162
1000000000001110,
#BPMCHANGE 164
100000200100000000200200000000100000100000002000,
#BPMCHANGE 165
000000000000000010002000100000100000000000200000000000000000000000000000100000100000200200200000,
#BPMCHANGE 167
1011102220111022,
#BPMCHANGE 169
200000202020100000200200200000200200200000200200,
#BPMCHANGE 170
100000000000100000202020100200000000000100200000,
#BPMCHANGE 172
0100001120001212,
#BPMCHANGE 174
1222101110111010,
#BPMCHANGE 175
1222022220202022, //150
#BPMCHANGE 177
#GOGOSTART
1001101010110110,
#BPMCHANGE 179
1011101010112112,
#BPMCHANGE 180
1001101010110110,
#BPMCHANGE 182
100000101010100000100000100100200100100200100000,
#BPMCHANGE 184
1001101010110110,
#BPMCHANGE 185
1011101010112112,
#BPMCHANGE 187
1001101010110110,
#BPMCHANGE 189
1222022040202220,
#BPMCHANGE 190
1001201121012011,
1001201121012101,
100000200100200000100100200100000100200000101010,
100200000200100100200200100200200100200200202020,
1001201121012011,
200100100100200000100100202020100100200100100100,
2011221120112211,
200200100100200200200100100200100100202020100000, //166
100000001000100000100000100100000100100000000000,
100000100000100010001000100000200200100200000200,
100100100100100100100100101010101010101010101010,
#GOGOEND
#SCROLL 2
4,
#SCROLL 1
0,
0,
0, //173
#END

COURSE:Oni
LEVEL:8
BALLOON:20,11
SCOREINIT:1600
SCOREDIFF:0
#START
#MEASURE 1/4
#SCROLL 0.5
0,
0,
0,
0,
0,
0,
0,
0,
0,
0,
0,
0,
0,
0,
#MEASURE 2/4
0
#SCROLL 0.75
5,
#MEASURE 8/4
0, //16
#MEASURE 1/4
000008000000,
#SCROLL 0.5
0,
0,
0,
0,
0,
0,
0,
0,
0,
0,
0,
0,
0,
0,
0,
#MEASURE 8/4
#SCROLL 0.75
5,
#MEASURE 4/4
000000000000000008000000000000100000000000000000, //34
#MEASURE 1/4
#SCROLL 0.5
0,
0,
0,
0,
0,
0,
0,
0,
#MEASURE 8/4
#SCROLL 0.75
5, //43
#MEASURE 1/4
000008000000,
#SCROLL 0.5
0,
0,
0,
0,
0,
0,
0,
0,
0,
#MEASURE 2/4
0
#SCROLL 0.75
5,
#MEASURE 8/4
0,
000000000000000000000000000000000000000000000000000000000000000000000008000000000000000000000000, //56
#MEASURE 4/4
#SCROLL 0.5
#GOGOSTART
101022,
#BARLINEOFF
101022,
#BARLINEON
101022,
#BARLINEOFF
110110,
#BARLINEON
101022,
#BARLINEOFF
101022,
#BARLINEON
121212,
#BARLINEOFF
110110,
#BARLINEON
102022,
#BARLINEOFF
102022,
#BARLINEON
102022,
#BARLINEOFF
110110,
#BARLINEON
102022,
#BARLINEOFF
102202,
#BARLINEON
102022,
#BARLINEOFF
110110, //72
#BARLINEON
101022,
#BARLINEOFF
5,
#BARLINEON
0,
#BARLINEOFF
000000000000000000000000000008000000000000000000,
#BARLINEON
112,
#BARLINEOFF
101250,
#BARLINEON
0,
#BARLINEOFF
000000000000000000000000000000000008000000000000,
#BARLINEON
102022,
#BARLINEOFF
102022,
#BARLINEON
102022,
#BARLINEOFF
110110,
#BARLINEON
102022,
#BARLINEOFF
122, //86
#GOGOEND
#BARLINEON
#MEASURE 6/4
111100111010,
102000222020,
201022201020,
323230,
111100111010,
221100202020,
222220111022,
111020,
111100111010,
211121112111,
102010221010,
201120111020,
101110102010,
100100100100000000100000100010001000,
341141,
411410, //102
#MEASURE 4/4
#GOGOSTART
101012,
#BARLINEOFF
5,
#BARLINEON
0,
#BARLINEOFF
000000000000000000000000000008000000000000000000,
#BARLINEON
101210,
#BARLINEOFF
101210,
#BARLINEON
7,
#BARLINEOFF
0008, //110
#BARLINEON
10110110,
#BARLINEOFF
11101110,
#BARLINEON
10110110,
#BARLINEOFF
11201120,
#BARLINEON
20220220,
#BARLINEOFF
20202220,
#BARLINEON
10110110,
#BARLINEOFF
11101110,
#BARLINEON
20220220,
#BARLINEOFF
20202220,
#BARLINEON
10110110,
#BARLINEOFF
11101110,
#BARLINEON
10110110,
#BARLINEOFF
21102110,
#BARLINEON
20110120,
#BARLINEOFF
10102110,
#BARLINEON
20110120,
#BARLINEOFF
10102110,
#BARLINEON
10110110,
#BARLINEOFF
11101110,
#BARLINEON
10110110,
#BARLINEOFF
11211121,
#BARLINEON
12121212,
#BARLINEOFF
12103000, //134
#GOGOEND
#BARLINEON
#MEASURE 4/4
#BPMCHANGE 150
#SCROLL 1
0,
#BPMCHANGE 152
0,
#BPMCHANGE 154
0,
#BPMCHANGE 155
0,
#BPMCHANGE 157
1020111010221010,
#BPMCHANGE 159
0,
#BPMCHANGE 160
1011222210221020,
#BPMCHANGE 162
1,
#BPMCHANGE 164
100000200100000000200200000000100000100000002000,
#BPMCHANGE 165
000000001000100100000200000000000000000000000000,
#BPMCHANGE 167
1011100220011000,
#BPMCHANGE 169
2011101120111110,
#BPMCHANGE 170
1000100012000110,
#BPMCHANGE 172
000100000000000000100100500000000000000008000000,
#BPMCHANGE 174
1011101120111011,
#BPMCHANGE 175
7008, //150
#BPMCHANGE 177
#GOGOSTART
1001001010011010,
#BPMCHANGE 179
1011101010112220,
#BPMCHANGE 180
1001001010011010,
#BPMCHANGE 182
1011101011102220,
#BPMCHANGE 184
1001001010011010,
#BPMCHANGE 185
1011101010112220,
#BPMCHANGE 187
1001001010011010,
#BPMCHANGE 189
1001011040222000,
#BPMCHANGE 190
1001021010011010,
1011201110112010,
1001021010011010,
1011201110112220,
1001021010011010,
1011201120112011,
2011211120112111,
2011221122112210, //166
300000001000100000100000100100000000100000000000,
100100101010300000400000,
500000000000000000000000000000000000000008000000,
#GOGOEND
#SCROLL 2
3,
#SCROLL 1
0,
0,
0, //173
#END

COURSE:Hard
LEVEL:7
BALLOON:16,8
SCOREINIT:2490
SCOREDIFF:0
#START
#MEASURE 1/4
#SCROLL 0.5
0,
0,
0,
0,
0,
0,
0,
0,
0,
0,
0,
0,
0,
0,
#MEASURE 2/4
0
#SCROLL 0.75
5,
#MEASURE 8/4
0, //16
#MEASURE 1/4
000008000000,
#SCROLL 0.5
0,
0,
0,
0,
0,
0,
0,
0,
0,
0,
0,
0,
0,
0,
0,
#MEASURE 8/4
#SCROLL 0.75
5,
#MEASURE 4/4
000000000000000008000000000000000000000000000000, //34
#MEASURE 1/4
#SCROLL 0.5
0,
0,
0,
0,
0,
0,
0,
0,
#MEASURE 8/4
#SCROLL 0.75
5, //43
#MEASURE 1/4
000008000000,
#SCROLL 0.5
0,
0,
0,
0,
0,
0,
0,
0,
0,
#MEASURE 2/4
0
#SCROLL 0.75
5,
#MEASURE 8/4
0,
000000000000000000000000000000000000000000000000000000000000000000000008000000000000000000000000, //56
#MEASURE 4/4
#SCROLL 0.5
#GOGOSTART
112,
#BARLINEOFF
112,
#BARLINEON
112,
#BARLINEOFF
110110,
#BARLINEON
112,
#BARLINEOFF
112,
#BARLINEON
112,
#BARLINEOFF
110110,
#BARLINEON
122,
#BARLINEOFF
122,
#BARLINEON
122,
#BARLINEOFF
110110,
#BARLINEON
122,
#BARLINEOFF
100202,
#BARLINEON
122,
#BARLINEOFF
110110, //72
#BARLINEON
112,
#BARLINEOFF
5,
#BARLINEON
0,
#BARLINEOFF
000000000000000000000000000008000000000000000000,
#BARLINEON
112,
#BARLINEOFF
115,
#BARLINEON
0,
#BARLINEOFF
000000000000000000000000000000000008000000000000,
#BARLINEON
122,
#BARLINEOFF
122,
#BARLINEON
122,
#BARLINEOFF
110110,
#BARLINEON
122,
#BARLINEOFF
122, //86
#GOGOEND
#BARLINEON
#MEASURE 6/4
111100101010,
120220,
210210,
323230,
111100101010,
222200002000,
221,
211020,
111100101010,
201110111011,
101210,
212112,
101120,
100100100100000000100000100010001000,
340141,
401400, //102
#BARLINEON
#MEASURE 4/4
#GOGOSTART
112,
#BARLINEOFF
5,
#BARLINEON
0,
#BARLINEOFF
000000000000000000000000000008000000000000000000,
#BARLINEON
112,
#BARLINEOFF
112,
#BARLINEON
7,
#BARLINEOFF
0008, //110
#BARLINEON
10010010,
#BARLINEOFF
11101000,
#BARLINEON
10010010,
#BARLINEOFF
11101000,
#BARLINEON
20020020,
#BARLINEOFF
22202000,
#BARLINEON
10010010,
#BARLINEOFF
11101000,
#BARLINEON
20020020,
#BARLINEOFF
20202220,
#BARLINEON
10010010,
#BARLINEOFF
11101000,
#BARLINEON
10010010,
#BARLINEOFF
22202000,
#BARLINEON
10010010,
#BARLINEOFF
20202220,
#BARLINEON
10010010,
#BARLINEOFF
22202000,
#BARLINEON
10010010,
#BARLINEOFF
11101000,
#BARLINEON
10010010,
#BARLINEOFF
11101110,
#BARLINEON
11111011,
#BARLINEOFF
11103000, //134
#GOGOEND
#BARLINEON
#MEASURE 4/4
#BPMCHANGE 150
#SCROLL 1
0,
#BPMCHANGE 152
0,
#BPMCHANGE 154
0,
#BPMCHANGE 155
0,
#BPMCHANGE 157
1,
#BPMCHANGE 159
0,
#BPMCHANGE 160
1,
#BPMCHANGE 162
0,
#BPMCHANGE 164
1,
#BPMCHANGE 165
0,
#BPMCHANGE 167
11,
#BPMCHANGE 169
1000100010111000,
#BPMCHANGE 170
11,
#BPMCHANGE 172
000100000000000000500000000000000000000008000000,
#BPMCHANGE 174
1000100010111010,
#BPMCHANGE 175
7008, //150
#BPMCHANGE 177
#GOGOSTART
1001001010001000,
#BPMCHANGE 179
10111110,
#BPMCHANGE 180
1001001010001000,
#BPMCHANGE 182
1001001010111000,
#BPMCHANGE 184
1001001010001000,
#BPMCHANGE 185
10111110,
#BPMCHANGE 187
1001001010001000,
#BPMCHANGE 189
100000000000100000000000600000000008000000000000,
#BPMCHANGE 190
1001002020001010,
10112210,
1001002020001010,
1001001020102000,
1001002020001010,
10112211,
21212121,
2011101110111000, //166
30113030,
11303040,
500000000000000000000000000000000000000008000000,
#GOGOEND
3,
0,
0,
0, //173
#END

COURSE:Normal
LEVEL:5
BALLOON:9,6
SCOREINIT:3990
SCOREDIFF:0
#START
#MEASURE 1/4
#SCROLL 0.5
0,
0,
0,
0,
0,
0,
0,
0,
0,
0,
0,
0,
0,
0,
#MEASURE 2/4
0
#SCROLL 0.75
5,
#MEASURE 8/4
0, //16
#MEASURE 1/4
000008000000,
#SCROLL 0.5
0,
0,
0,
0,
0,
0,
0,
0,
0,
0,
0,
0,
0,
0,
0,
#MEASURE 8/4
#SCROLL 0.75
5,
#MEASURE 4/4
000000000000000008000000000000000000000000000000, //34
#MEASURE 1/4
#SCROLL 0.5
0,
0,
0,
0,
0,
0,
0,
0,
#MEASURE 8/4
#SCROLL 0.75
5, //43
#MEASURE 1/4
000008000000,
#SCROLL 0.5
0,
0,
0,
0,
0,
0,
0,
0,
0,
#MEASURE 2/4
0
#SCROLL 0.75
5,
#MEASURE 8/4
0,
000000000000000000000000000000000000000000000000000000000000000000000008000000000000000000000000, //56
#BARLINEON
#MEASURE 4/4
#SCROLL 0.5
#GOGOSTART
110,
#BARLINEOFF
110,
#BARLINEON
110,
#BARLINEOFF
110110,
#BARLINEON
110,
#BARLINEOFF
110,
#BARLINEON
110,
#BARLINEOFF
110110,
#BARLINEON
220,
#BARLINEOFF
220,
#BARLINEON
220,
#BARLINEOFF
220220,
#BARLINEON
220,
#BARLINEOFF
220,
#BARLINEON
220,
#BARLINEOFF
220220, //72
#BARLINEON
110,
#BARLINEOFF
5,
#BARLINEON
0,
#BARLINEOFF
000000000000000000000000000008000000000000000000,
#BARLINEON
110,
#BARLINEOFF
115,
#BARLINEON
0,
#BARLINEOFF
000000000000000000000000000000000008000000000000,
#BARLINEON
220,
#BARLINEOFF
220,
#BARLINEON
220,
#BARLINEOFF
220220,
#BARLINEON
220,
#BARLINEOFF
220, //86
#GOGOEND
#BARLINEON
#MEASURE 6/4
100110,
1,
200210,
333,
100110,
302,
222,
212,
100110,
111,
100110,
221,
122,
100110,
304,
44, //102
#BARLINEON
#MEASURE 4/4
#GOGOSTART
110,
#BARLINEOFF
5,
#BARLINEON
0,
#BARLINEOFF
000000000000000000000000000008000000000000000000,
#BARLINEON
110,
#BARLINEOFF
110,
#BARLINEON
7,
#BARLINEOFF
0008, //10
#BARLINEON
10010000,
#BARLINEOFF
1110,
#BARLINEON
10010000,
#BARLINEOFF
1110,
#BARLINEON
20020000,
#BARLINEOFF
2220,
#BARLINEON
10010000,
#BARLINEOFF
1110,
#BARLINEON
20020000,
#BARLINEOFF
2220,
#BARLINEON
10010000,
#BARLINEOFF
1110,
#BARLINEON
10010000,
#BARLINEOFF
2220,
#BARLINEON
10010000,
#BARLINEOFF
2220,
#BARLINEON
10010000,
#BARLINEOFF
2220,
#BARLINEON
10010000,
#BARLINEOFF
1110,
#BARLINEON
10010000,
#BARLINEOFF
1110,
#BARLINEON
1111,
#BARLINEOFF
1130, //134
#GOGOEND
#BARLINEON
#MEASURE 4/4
#BPMCHANGE 150
#SCROLL 1
0,
#BPMCHANGE 152
0,
#BPMCHANGE 154
0,
#BPMCHANGE 155
0,
#BPMCHANGE 157
1,
#BPMCHANGE 159
0,
#BPMCHANGE 160
1,
#BPMCHANGE 162
0,
#BPMCHANGE 164
1,
#BPMCHANGE 165
0,
#BPMCHANGE 167
1,
#BPMCHANGE 169
0,
#BPMCHANGE 170
1,
#BPMCHANGE 172
0,
#BPMCHANGE 174
11,
#BPMCHANGE 175
7008, //150
#BPMCHANGE 177
#GOGOSTART
10011000,
#BPMCHANGE 179
10011010,
#BPMCHANGE 180
10011000,
#BPMCHANGE 182
1001001010001000,
#BPMCHANGE 184
10011000,
#BPMCHANGE 185
10011010,
#BPMCHANGE 187
10011000,
#BPMCHANGE 189
100000000000100000000000600000000008000000000000,
#BPMCHANGE 190
10022000,
10222010,
10022000,
1001002020002000,
10022000,
1222,
10111011,
10111110, //166
33,
3334,
500000000000000000000000000000000000000008000000,
#GOGOEND
3,
0,
0,
0, //173
#END

COURSE:Easy
LEVEL:4
BALLOON:7,4
SCOREINIT:6140
SCOREDIFF:0
#START
#MEASURE 1/4
#SCROLL 0.5
0,
0,
0,
0,
0,
0,
0,
0,
0,
0,
0,
0,
0,
0,
#MEASURE 2/4
0
#SCROLL 0.75
5,
#MEASURE 8/4
0, //16
#MEASURE 1/4
000008000000,
#SCROLL 0.5
0,
0,
0,
0,
0,
0,
0,
0,
0,
0,
0,
0,
0,
0,
0,
#MEASURE 8/4
#SCROLL 0.75
5,
#MEASURE 4/4
000000000000000008000000000000000000000000000000, //34
#MEASURE 1/4
#SCROLL 0.5
0,
0,
0,
0,
0,
0,
0,
0,
#MEASURE 8/4
#SCROLL 0.75
5, //43
#MEASURE 1/4
000008000000,
#SCROLL 0.5
0,
0,
0,
0,
0,
0,
0,
0,
0,
#MEASURE 2/4
0
#SCROLL 0.75
5,
#MEASURE 8/4
0,
000000000000000000000000000000000000000000000000000000000000000000000008000000000000000000000000, //56
#MEASURE 4/4
#SCROLL 0.5
#GOGOSTART
1,
#BARLINEOFF
1,
#BARLINEON
1,
#BARLINEOFF
11,
#BARLINEON
1,
#BARLINEOFF
1,
#BARLINEON
1,
#BARLINEOFF
11,
#BARLINEON
2,
#BARLINEOFF
2,
#BARLINEON
2,
#BARLINEOFF
22,
#BARLINEON
2,
#BARLINEOFF
2,
#BARLINEON
2,
#BARLINEOFF
22, //72
#BARLINEON
1,
#BARLINEOFF
5,
#BARLINEON
0,
#BARLINEOFF
000000000000000000000000000008000000000000000000,
#BARLINEON
1,
#BARLINEOFF
150,
#BARLINEON
0,
#BARLINEOFF
000000000000000000000000000000000008000000000000,
#BARLINEON
2,
#BARLINEOFF
2,
#BARLINEON
2,
#BARLINEOFF
22,
#BARLINEON
2,
#BARLINEOFF
2, //86
#GOGOEND
#BARLINEON
#MEASURE 6/4
100110,
1,
22,
333,
100110,
3,
2,
2,
100110,
111,
101,
202,
102,
100110,
304,
44, //102
#BARLINEON
#MEASURE 4/4
#GOGOSTART
1,
#BARLINEOFF
5,
#BARLINEON
0,
#BARLINEOFF
000000000000000000000000000008000000000000000000,
#BARLINEON
1,
#BARLINEOFF
1,
#BARLINEON
7,
#BARLINEOFF
0008, //110
#BARLINEON
1,
#BARLINEOFF
11,
#BARLINEON
1,
#BARLINEOFF
11,
#BARLINEON
2,
#BARLINEOFF
22,
#BARLINEON
1,
#BARLINEOFF
11,
#BARLINEON
2,
#BARLINEOFF
22,
#BARLINEON
1,
#BARLINEOFF
11,
#BARLINEON
1,
#BARLINEOFF
22,
#BARLINEON
1,
#BARLINEOFF
22,
#BARLINEON
1,
#BARLINEOFF
22,
#BARLINEON
1,
#BARLINEOFF
1110,
#BARLINEON
1,
#BARLINEOFF
1110,
#BARLINEON
1011,
#BARLINEOFF
13, //134
#GOGOEND
#BARLINEON
#MEASURE 4/4
#BPMCHANGE 150
#SCROLL 1
0,
#BPMCHANGE 152
0,
#BPMCHANGE 154
0,
#BPMCHANGE 155
0,
#BPMCHANGE 157
1,
#BPMCHANGE 159
0,
#BPMCHANGE 160
1,
#BPMCHANGE 162
0,
#BPMCHANGE 164
1,
#BPMCHANGE 165
0,
#BPMCHANGE 167
1,
#BPMCHANGE 169
0,
#BPMCHANGE 170
1,
#BPMCHANGE 172
0,
#BPMCHANGE 174
11,
#BPMCHANGE 175
7008, //150
#BPMCHANGE 177
#GOGOSTART
11,
#BPMCHANGE 179
1011,
#BPMCHANGE 180
11,
#BPMCHANGE 182
1011,
#BPMCHANGE 184
11,
#BPMCHANGE 185
1011,
#BPMCHANGE 187
11,
#BPMCHANGE 189
1,
#BPMCHANGE 190
12,
1222,
12,
1022,
12,
1222,
12,
1111, //166
33,
3330,
500000000000000000000000000000000000000008000000,
#GOGOEND
3,
0,
0,
0, //173
#END
