//TJADB Project
TITLE:Chu, Tayousei.
TITLEJA:ちゅ、多様性。
SUBTITLE:--Chainsaw Man Ending Theme
SUBTITLEJA:TVアニメ「チェンソーマン」エンディング・テーマ
BPM:153
WAVE:Chu Tayousei.ogg
OFFSET:-1.696
DEMOSTART:63.739 //Shinuchi:
9780/5630/2790/1900

COURSE:Oni
LEVEL:8
BALLOON:
SCOREINIT:620,2120
SCOREDIFF:170
#START
11210121,
1022201010202010,
1011111122222220,
32111440,
11210121,
1022201010202011,
11210143,
03343343, //8
1001102010011020,
0011102010201022,
1001102010011020,
0011102010201220,
1001102010011020,
0011102010201022,
500000000000000000000000000008000000200000300000,
03343343, //16
1001102010011020,
0011102010211022,
1001102010011020,
0011102011211020,
1001102010011020,
0011102010211022,
500000000000000000000000000008000000200000300000,
03343343, //24
1000201020222010,
1020201000222220,
1000201020222010,
1020201000221110,
1000201020222010,
0011102010201110,
500000000000000000000000000008000000200000300000,
01121121, //32
1021201010212020,
1021211010201022,
1021201010212020,
1021211011221000,
1021201010212010,
0011102010201122,
500000000000000000000000000008000000200000300000,
03343443, //40
#GOGOSTART
1010222010102220,
1010221010221120,
1010222010102011,
1020222010401040,
1010222010102220,
1010221010221120,
500000000000000000000000000008000000200000300000,
03343344, //48
1021201021112020,
1021211021112110,
1021201021112011,
1020211022112210,
3000201110000011,
11012101,
21212213,
03333333,
#GOGOEND
0,
0, //58
#END

COURSE:Hard
LEVEL:5
BALLOON:13
SCOREINIT:660,3180
SCOREDIFF:193
#START
10110120,
12111020,
500000000000000000000000000000000000000008000000,
30111440,
11210120,
12211020,
11210143,
03333330, //8
10101002,
01101110,
10101002,
01101110,
10101002,
01101110,
500000000000000000000000000008000000200000300000,
03333330, //16
10121012,
0010100010102011,
10121012,
0010100011102010,
10121012,
01101121,
500000000000000000000000000008000000200000300000,
03333330, //24
10202120,
1000201000102011,
10202120,
1000201000111010,
10202121,
01211120,
500000000000000000000000000008000000200000300000,
01111110, //32
10201212,
1000201000201011,
10201212,
1000201000111010,
10201212,
01211212,
500000000000000000000000000008000000200000300000,
03333440, //40
#GOGOSTART
11221122,
11210120,
11221121,
01100212,
11221122,
11210111,
500000000000000000000000000008000000200000300000,
03333330, //48
12211221,
1020201010111000,
12211221,
01221212,
3000201110000010,
11012100,
11221019,
000000000000000009000000,
#GOGOEND
8,
0, //58
#END

COURSE:Normal
LEVEL:4
BALLOON:6,6,6,6,6,6,9
SCOREINIT:1010,6270
SCOREDIFF:350
#START
1,
11,
500000000000000000000000000000000000000008000000,
30000440,
10110000,
1120,
10110033,
07000008, //8
11,
01101000,
11,
01101000,
11,
01101010,
500000000000000000000000000008000000000000300000,
07000008, //16
1210,
01101000,
1210,
01101000,
1210,
01101010,
500000000000000000000000000008000000000000300000,
07000008, //24
1220,
10110000,
1220,
10110000,
10202001,
01001010,
500000000000000000000000000008000000000000300000,
07000008, //32
1211,
10110000,
1211,
10110000,
10201001,
01001110,
500000000000000000000000000008000000000000300000,
07000008, //40
#GOGOSTART
11101110,
10110000,
11101111,
01100000,
11101110,
10110110,
500000000000000000000000000000000008000000300000,
07000008, //48
11101110,
10110000,
11101111,
01101010,
10201001,
11010000,
10101019,
000000000000000009000000,
#GOGOEND
8,
0, //58
#END

COURSE:Easy
LEVEL:3
BALLOON:4,4,4,4,4,4,8
SCOREINIT:1090,11040
SCOREDIFF:645
#START
1,
1,
500000000000000000000000000008000000000000000000,
3,
1,
11,
10000003,
07000800, //8
11,
01,
11,
01,
11,
01,
500000000000000000000008000000000000000000300000,
07000800, //16
11,
02,
11,
02,
11,
02,
500000000000000000000008000000000000000000300000,
07000800, //24
11,
2200,
11,
2200,
10001001,
01,
500000000000000000000008000000000000000000300000,
07000800, //32
12,
1100,
12,
1100,
10001001,
0011,
500000000000000000000008000000000000000000300000,
07000800, //40
#GOGOSTART
1110,
1100,
1111,
0100,
1110,
10100600,
000000000000000000000008000000000000000000300000,
07000800, //48
1110,
2200,
1111,
0100,
10101001,
01010000,
10101009,
000000000000000009000000,
#GOGOEND
8,
0, //58
#END
