//TJADB Project
TITLE:Kizuna no Kiseki
TITLEJA:絆ノ奇跡
SUBTITLE:--
SUBTITLEJA:
BPM:170
WAVE:Kizuna no Kiseki.ogg
OFFSET:-1.119
DEMOSTART:51.940

COURSE:Edit
LEVEL:9
BALLOON:9,6
SCOREINIT:1670
SCOREDIFF:0
#START
12212212,
0010102010221020,
12212212,
0010121022112020, //4
1022201022201121,
1022201122111020,
1022201022201121,
1022202211112020,
1022201022201121,
1022201122111020,
1022201012101021,
1011201040404040, //12
0000112000202010,
0022202000111010,
02012122,
1110222010002010,
1000201110102010,
0010112000202010,
1000201110102010,
0010201000112000, //20
1010201111102010,
1022201110102011,
1120201010222010,
1110222010102011,
1120202222101011,
1011201010222020,
1011202210112111,
12213333, //28
101010122020,
122100,
101010122010,
211200,
101010122020,
100020002000100000000100,
1020201011111111,
78, //36
#GOGOSTART
1010201111102022,
1111202010102022,
1110202211102022,
1111201020112000,
1010201111102022,
1111202010102022,
1110202211102022,
1111201021112000, //44
1102201020112010,
1102201020112020,
1022102202102011,
1122201021112220,
1102102020112010,
1202102020112020,
1022102011221070,
00822112, //52
1010201020102210,
2010201020102210,
32232233,
#GOGOEND
02020102, //56
1022201022201121,
1022201122111020,
1022201022201121,
1022202211112020,
1022201022201121,
1022201221111120,
1012112021221120,
0,
0, //65
#END

COURSE:Oni
LEVEL:5
BALLOON:26,26,28,15
SCOREINIT:3500
SCOREDIFF:0
#START
10222021,
01102020,
10222021,
02211020, //4
1000101110102000,
12121020,
1000101110102000,
1020101020222000,
1000101110102000,
12121020,
5,
000000000000000000000000000000000000000008000000, //12
10010000,
0,
10010000,
2220,
10010000,
20020000,
10010000,
2, //20
10112011,
21211012,
10112011,
20202110,
10112011,
10102121,
7,
0008, //28
222222,
111100,
111111,
222200,
222222,
111100,
7,
08, //36
#GOGOSTART
3000111010102010,
1000111020102010,
1000111010102010,
1000100022200000,
1000111010102010,
1000111020102010,
1000111010102010,
1000100022200010, //44
1002201010000010,
1002201010000010,
7,
00008001,
1001201010000010,
1001201010000030,
30430304,
03011110, //52
5,
000000000008000000000000000000000000100000000000,
600000000000000000000000000000000000000008000000,
#GOGOEND
0, //56
1000101110102000,
12121020,
1000101110102000,
1020101020222000,
1020101110102000,
1020101020222000,
7,
8,
0, //65
#END

COURSE:Hard
LEVEL:3
BALLOON:23,13,20,11
SCOREINIT:6410
SCOREDIFF:0
#START
10001001,
02,
10001001,
0220, //4
10101110,
1110,
10101110,
2220,
10101110,
1110,
5,
000000000000000000000000000000000000000008000000, //12
1,
0,
1,
22,
10010000,
1,
10010000,
2, //20
10110010,
1110,
10110010,
2220,
10110010,
1122,
7,
0008, //28
22,
2,
22,
2,
22,
22,
7,
8, //36
#GOGOSTART
30101110,
1110,
10101110,
2220,
10101110,
1110,
10101110,
2220, //44
2002002020000000,
2002002020000000,
7,
08,
1001001010000000,
1001001010000000,
30030003,
03001010, //52
5,
000000000008000000000000000000000000100000000000,
600000000000000000000000000000000000000008000000,
#GOGOEND
0, //56
10111020,
1110,
10111010,
2220,
10111020,
1110,
9009,
8,
0, //65
#END

COURSE:Normal
LEVEL:2
BALLOON:13,10,13,8
SCOREINIT:13400
SCOREDIFF:0
#START
1,
0,
1,
0, //4
11,
1,
11,
1,
11,
1,
5,
000000000000000000000000000008000000000000000000, //12
1,
0,
1,
2,
1,
0,
2,
0, //20
1,
11,
1,
11,
1,
1,
7,
00000800, //28
2,
2,
2,
2,
22,
2,
7,
8, //36
#GOGOSTART
31,
1110,
11,
2220,
11,
1110,
11,
2220, //44
22,
22,
7,
08,
11,
11,
30030003,
0, //52
5,
000000000008000000000000000000000000000000000000,
600000000000000000000000000000000000000008000000,
#GOGOEND
0, //56
11,
1,
11,
1,
2220,
2220,
9009,
8,
0, //65
#END

COURSE:Easy
LEVEL:2
BALLOON:10,7,8,6
SCOREINIT:21600
SCOREDIFF:0
#START
1,
0,
1,
0, //4
1,
1,
1,
0,
1,
1,
5,
000000000000000000000000000008000000000000000000, //12
1,
0,
1,
0,
1,
0,
1,
0, //20
1,
1,
1,
11,
1,
1,
7,
00000800, //28
2,
0,
2,
0,
2,
2,
7,
8, //36
#GOGOSTART
31,
1,
11,
1,
11,
1,
11,
1, //44
2,
2,
7,
08,
1,
1,
30000003,
0, //52
5,
000000000008000000000000000000000000000000000000,
600000000000000000000000000000000000000008000000,
#GOGOEND
0, //56
1,
1,
1,
1,
2,
2,
9009,
8,
0, //65
#END
