//TJADB Project
TITLE:11:54PM, Prelude for The Journey of Sunlight
TITLEJA:23時54分、陽の旅路へのプレリュード
SUBTITLE:--Camellia
SUBTITLEJA:かめりあ
BPM:300
WAVE:2354 Prelude for The Journey of Sunlight.ogg
OFFSET:-0.911
DEMOSTART:100.710 //SONG_ID:hitabi

COURSE:Edit
LEVEL:10
BALLOON:2,2,2,2,2,2,16,19,19,2,2,2,2,2,2,2,2,2,2,2,2,2,2,2,2,2,2,2,2,2
SCOREINIT:700
SCOREDIFF:0
#START
#BARLINEOFF
#MEASURE 1/4
0,
#BARLINEON
#MEASURE 3/4
#GOGOSTART
708011111122,
233,
708011112222,
233,
708011222222,
233,
121021101210,
211012102110,
708011222211,
233,
708011222211,
233,
708011221122,
234, //15
#GOGOEND
#MEASURE 8/4
#BPMCHANGE 200
#SCROLL 0.75
100010002000101020002000111010102020101020102020,
100010002000101020002000111010102020101020102020,
000000000022200020002000202210001020202020201020,
700000000000000000800011700000000000000000000800,
000000000022200020002000202210001020101020201020,
700000000000000000000000000000000000000000800000202010101000000100100100200020001000100020202000,
101000000000200000002000200000010000200000100000200020000000200010100000200000001010200000000000,
101000000000200000002000200000010000200010000000200020000000202010100000200020001010200000001000,
200000000020200000200000200000000200000000100100200200200100200100100200200200100200100000100000,
200000000200000000200200100000200000200000100000200000002020200000002000000100100200200200100200,
101000000000200000002000202000010000200000100000200020000000200010100000200000001010200000000000,
101000000000200000002000202000010000200010000000200020000000202010100000200020001010200200200200, //27
#MEASURE 4/4
#SCROLL 0.83
500008000000100000002000000010001000000010002000,
100102122112,
#SCROLL 0.92
500008000000100000002000200010001000000010002000,
100102122112,
#SCROLL 1.02
500008000000100000002000100020001000100010002000,
111011101110212120212120,
#SCROLL 1.13
500800002020202010102020101010102000
#SCROLL 1.33
400000000000,
608000608000220000000000, //35
#MEASURE 3/4
#BPMCHANGE 300
#SCROLL 1
#GOGOSTART
300022221122,
101122221122,
100022221122,
111122221122,
100011221122,
101122221122,
100011221122,
111122221122,
#GOGOEND
100022221111,
#MEASURE 13/16
2222
#BPMCHANGE 375
#SCROLL 0.8
11111
#BPMCHANGE 300
#SCROLL 1
1111,
#MEASURE 3/4
100011112222,
#MEASURE 13/16
1111
#BPMCHANGE 375
#SCROLL 0.8
22222
#BPMCHANGE 300
#SCROLL 1
2222,
#MEASURE 3/4
#GOGOSTART
101022112211,
222111222111,
500008000000500008000000500008000000,
787878, //51
#GOGOEND
#MEASURE 8/4
#BPMCHANGE 200
#SCROLL 0.5
100020002000200020002000200000000022200000000022,
100020002000200020002000200000000022100000200000,
1000201110002011,
102020102120112012012040,
#SCROLL 0.67
300010002000100020102000102000200021102000200022,
100010002000100020102000102000200021102000200000,
300000002020111010200200300000002200111010200200,
300000002000200020002000200020002000200200200200100000000000200000000000300000000000400000000000,
#SCROLL 0.75
220020002111
#GOGOSTART
200020101020001020201120100011200000,
110020002020110020101020001020201120100011200000,
#GOGOEND
200000200200200200100200100200101000002000000000100000000200000000400000200200100200200100200200,
100200000000200000000200000000400000001010102020200100200200100100100200100200200100100100200200,
#GOGOSTART
110020002020110020101020001020201120100011200000,
110020002020110020101020001020201120100011200020,
#GOGOEND
202222221122100210201200100011112222111121200200,
101210201200101210201200110222222222100000000000, //67
#MEASURE 3/4
#BPMCHANGE 300
#SCROLL 1
#GOGOSTART
708022111122,
233,
708022112222,
233,
#GOGOEND
#BARLINEOFF
#MEASURE 6/4
#SCROLL 0.8
002022002022220022202222,
#BARLINEON
#SCROLL 0.86
000000300000300000000000300000300000300000000000500008000000
#SCROLL 1
400000000000, //73
#MEASURE 3/4
#GOGOSTART
708010101111,
221120102020,
101020102222,
112210102020,
708011112222,
101022221111,
200010001000200100100100200010001000,
200010002000100200100200100020001000,
708011221122,
508000000100200000004000000040000000,
708022112211,
508000000100200000003000000030000000,
708011221111,
202011222111,
221022102210,
202211212211, //89
708020101111,
221120102020,
1020
#GOGOEND
12221222,
122220001212,
#GOGOSTART
102121212010,
201212121020,
100020002000100200200200100020002000,
100200100200100020002000100200100200,
708011221122,
508000000100200000004000000040000000,
708022112211,
508000000100200000003000000030000000,
402111202111,
202111202111,
212111212111,
222111222111, //105
#GOGOEND
708000100011,
212120,
201110102020,
122122,
121212121,
200010002000100020001000200100200100,
212121212,
100200100200100020001000200000400000,
708010201011,
212120,
202210102020,
112212,
121212121,
212121212,
222111222111,
221121221121,
100022,
200022,
200022,
222111111,
#MEASURE 6/4
1
#SCROLL 0.8
00000,
500008000000500008000000500080000000500800000000508000000000
#SCROLL 1
400000000000, //127
#MEASURE 3/4
#GOGOSTART
708012211112,
233,
708012211122,
233,
708012211222,
233,
121021101210,
211012102210,
708012221222,
134,
708011221122,
134,
708011121112,
134, //141
#GOGOEND
111122112222,
111122112222,
112122112122,
112122112122,
#GOGOSTART
100022221111,
#GOGOEND
20
#SCROLL 1.33
0300,
#SCROLL 1
0,
0,
0,
#MEASURE 4/4
0, //151
#END

COURSE:Oni
LEVEL:10
BALLOON:3,3,4,13,13,11
SCOREINIT:1000
SCOREDIFF:0
#START
#BARLINEOFF
#MEASURE 1/4
0,
#BARLINEON
#MEASURE 3/4
#GOGOSTART
300011111010,
233,
300011111010,
233,
300011111010,
233,
343,
434,
300011111010,
233,
300011111010,
233,
300011111010,
234, //15
#GOGOEND
#MEASURE 8/4
#BPMCHANGE 200
#SCROLL 0.75
101011202020101021202020,
100000001000000010001000200000002000000020000000100000001000000020001000500000000000000800000000,
200202202000200202201022,
100101101000100101102010,
200202202000200202201022,
100000000000100000001000100000001000000020002000500000000000000000000000000000000000000008000000,
100200200200100210201200,
100200200200100210221201,
20002020200200221111222211221010,
200000000200000000200200100000100000200000200000100000002020200000002000100100200200100100200200,
100200200200100210201200,
100200200200100211201202, //27
#MEASURE 4/4
#SCROLL 0.83
100102011022,
100102211221,
#SCROLL 0.92
100102011022,
100101221122,
#SCROLL 1.02
100102011122,
101010101010111011101110,
#SCROLL 1.13
100000500000000000000000000000080000
#SCROLL 1.33
400000000000,
3340, //35
#MEASURE 3/4
#BPMCHANGE 300
#SCROLL 1
#GOGOSTART
302212,
102022202020,
102212,
111022202020,
102212,
102022202020,
102212,
111022202020,
#GOGOEND
300022202020,
#MEASURE 13/16
2220
#BPMCHANGE 375
#SCROLL 0.8
70000
#BPMCHANGE 300
#SCROLL 1
8000,
#MEASURE 3/4
300022202020,
#MEASURE 13/16
2220
#BPMCHANGE 375
#SCROLL 0.8
70000
#BPMCHANGE 300
#SCROLL 1
8000,
#MEASURE 3/4
#GOGOSTART
111111,
211111,
333,
444, //51
#GOGOEND
#MEASURE 8/4
#BPMCHANGE 200
#SCROLL 0.5
100020002000200020002000200000000022200000000000,
100020002000200020002000200000000022200000200000,
1000201110002011,
101010202020111010222040,
#SCROLL 0.67
300010002000100020002000100000000022200000000011,
100010002000100020002000100000000011100000200000,
300000001000200000100100300000002000200000100100,
111111111111100200300400,
#SCROLL 0.75
220020002000
#GOGOSTART
300020101020002020001020000040000000,
102002102112022012004000,
#GOGOEND
100011101010200010002000101011101010200010002010,
100011101010200010002000101011101010200030003000,
#GOGOSTART
102002102112022012004000,
102002102112022012004000,
#GOGOEND
100011102010200010002010101011102010200010002010,
101020102010101020102010111011101110700000800000, //67
#MEASURE 3/4
#BPMCHANGE 300
#SCROLL 1
#GOGOSTART
300011111010,
233,
300011111010,
233,
#GOGOEND
#BARLINEOFF
#MEASURE 6/4
#SCROLL 0.8
002020002020200022002200,
#BARLINEON
#SCROLL 0.86
000000300000300000000000300000300000300000000000500008000000
#SCROLL 1
400000000000, //73
#MEASURE 3/4
#GOGOSTART
300011102010,
111020102010,
200011201010,
202011201010,
200011101010,
100022202020,
111011102010,
222022201020,
100011202010,
100100100000400000003000000030000000,
300011202010,
100100100000400000003000000030000000,
300011202010,
201011202010,
111011102220,
101120101120, //89
300011102010,
111020102010,
2
#GOGOEND
50,
000000000008000000000000200200200200,
#GOGOSTART
100011202020,
100011202020,
111022201010,
222011102020,
100011202020,
100100100000400000003000000030000000,
400011202020,
100100100000400000003000000030000000,
111010111010,
222020222020,
111110111110,
222220222220, //105
#GOGOEND
200000100022,
222,
211122,
112122,
5,
000000000000000000000000000008000000,
7,
008,
100010201022,
202120,
211222,
112212,
5,
000000000000000000000000000008000000,
7,
008,
300022,
200022,
200022,
2,
#MEASURE 6/4
#SCROLL 0.8
100022222020202020202020,
7000000008
#SCROLL 1
40, //127
#MEASURE 3/4
#GOGOSTART
300011111010,
233,
300011111010,
233,
300011111010,
233,
343,
434,
300011221010,
234,
300011221010,
234,
300011221010,
234, //141
#GOGOEND
450,
0,
0,
000000000000000008000000200200200200,
#GOGOSTART
200011111111,
#GOGOEND
20
#SCROLL 1.33
0300,
#SCROLL 1
0,
0,
0,
#MEASURE 4/4
0, //151
#END

COURSE:Hard
LEVEL:8
BALLOON:10,10,10,9,6,10,10,8,10
SCOREINIT:1550
SCOREDIFF:0
#START
#BARLINEOFF
#MEASURE 1/4
0,
#BARLINEON
#MEASURE 3/4
#GOGOSTART
301111,
233,
301111,
233,
301111,
233,
7,
008,
301111,
233,
301111,
233,
7,
008, //15
#GOGOEND
#MEASURE 8/4
#BPMCHANGE 200
#SCROLL 0.75
101222111222,
100000000000000010000000200000002000000020000000100000001000000010000000500000000000000800000000,
200202202000200202202000,
100101101000100101101000,
200202202000200202202000,
100000000000100000001000100000001000000000000000500000000000000000000000000000000000000008000000,
100200200200100220202200,
100200200200100220202200,
10002020200200001000200020201010,
200000000200000000000000200000200000200000200000100000002000000000002000200000000000200000000000,
100200200200100220202200,
100200200200100220202200, //27
#MEASURE 4/4
#SCROLL 0.83
300101002010,
100101122020,
#SCROLL 0.92
300101002020,
100101122020,
#SCROLL 1.02
300101011111,
500000000000000000000000000000000000000000000008,
#SCROLL 1.13
000
#SCROLL 1.33
4,
3340, //35
#MEASURE 3/4
#BPMCHANGE 300
#SCROLL 1
#GOGOSTART
302220,
111020,
102220,
112020,
302220,
111020,
102220,
112020,
#GOGOEND
302222,
#MEASURE 13/16
2000
#BPMCHANGE 375
#SCROLL 0.8
40000
#BPMCHANGE 300
#SCROLL 1
0000,
#MEASURE 3/4
302222,
#MEASURE 13/16
2000
#BPMCHANGE 375
#SCROLL 0.8
40000
#BPMCHANGE 300
#SCROLL 1
0000,
#MEASURE 3/4
#GOGOSTART
111110,
222220,
7,
008, //51
#GOGOEND
#MEASURE 8/4
#BPMCHANGE 200
#SCROLL 0.5
100222200200,
100000202020200000200200,
1000201110002011,
101010202020700000000800,
#SCROLL 0.67
311222100200,
101010202020100000200200,
3000201130002011,
500000000000000000000000000000000000000008000000100000000000200000000000300000000000400000000000,
#SCROLL 0.75
202020
#GOGOSTART
302002002022002000,
102002002002002022002000,
#GOGOEND
101110200010111010200000,
101110200010111010200000,
#GOGOSTART
102002002202002022002000,
102002002202002022002000,
#GOGOEND
101110201010111010201010,
111010111010700000800000, //67
#MEASURE 3/4
#BPMCHANGE 300
#SCROLL 1
#GOGOSTART
301111,
233,
301111,
233,
#GOGOEND
#BARLINEOFF
#MEASURE 6/4
#SCROLL 0.8
022022202020,
#BARLINEON
#SCROLL 0.86
0330333000
#SCROLL 1
40, //73
#MEASURE 3/4
#GOGOSTART
301011,
112020,
101110,
221020,
101110,
102220,
111110,
222220,
101011,
100403030,
301011,
100403030,
301120,
111120,
111,
222220, //89
301011,
112020,
1
#GOGOEND
50,
000000000008000000000000200000200000,
#GOGOSTART
102220,
102220,
111110,
222220,
101011,
100403030,
301011,
100403030,
31,
22,
110110,
220220, //105
#GOGOEND
21,
222,
222010,
222220,
5,
000000000000000000000000000008000000,
7,
008,
100110,
222,
222010,
111120,
5,
000000000000000000000000000008000000,
7,
008,
300022,
200022,
200022,
2,
#MEASURE 6/4
#SCROLL 0.8
1,
70008
#SCROLL 1
4, //127
#MEASURE 3/4
#GOGOSTART
301111,
233,
301111,
233,
301111,
233,
7,
008,
301122,
233,
301122,
233,
301122,
233, //141
#GOGOEND
450,
0,
0,
000000000000000000000008000000000000,
#GOGOSTART
402211,
#GOGOEND
20
#SCROLL 1.33
0300,
#SCROLL 1
0,
0,
0,
#MEASURE 4/4
0, //151
#END

COURSE:Normal
LEVEL:7
BALLOON:6,6,6,6,4,11,11,5,6
SCOREINIT:2130
SCOREDIFF:0
#START
#BARLINEOFF
#MEASURE 1/4
0,
#BARLINEON
#MEASURE 3/4
#GOGOSTART
300022,
233,
300022,
233,
300022,
233,
7,
08,
300022,
233,
300022,
233,
7,
08, //15
#GOGOEND
#MEASURE 8/4
#BPMCHANGE 200
#SCROLL 0.75
100200111100,
100200111100,
100200202000200200202000,
100100101000100100101000,
200200202000200200202000,
100000000000100000000000100000001000000000000000500000000000000000000000000000000008000000000000,
12221212,
12221212,
1022200010101110,
1000222010002000,
12221212,
12221212, //27
#MEASURE 4/4
#SCROLL 0.83
300300002020,
100100002000,
#SCROLL 0.92
300300002020,
100100002000,
#SCROLL 1.02
300300001010,
500000000000000000000000000000000000000000000008,
#SCROLL 1.13
000
#SCROLL 1.33
3,
3340, //35
#MEASURE 3/4
#BPMCHANGE 300
#SCROLL 1
#GOGOSTART
302,
112,
102,
121,
302,
112,
102,
121,
#GOGOEND
302,
#MEASURE 13/16
2000
#BPMCHANGE 375
#SCROLL 0.8
20000
#BPMCHANGE 300
#SCROLL 1
0000,
#MEASURE 3/4
302,
#MEASURE 13/16
2000
#BPMCHANGE 375
#SCROLL 0.8
20000
#BPMCHANGE 300
#SCROLL 1
0000,
#MEASURE 3/4
#GOGOSTART
111,
111110,
7,
08, //51
#GOGOEND
#MEASURE 8/4
#BPMCHANGE 200
#SCROLL 0.5
100202200200,
100000200020200000200200,
1212,
101010101010700000000800,
#SCROLL 0.67
311222100200,
101010202020100000200200,
3131,
500000000000000000000000000000000000000000000008000000000000000000000000000000000000000000000000,
#SCROLL 0.75
202000
#GOGOSTART
300002002002002000,
100002002002002002002000,
#GOGOEND
111201101200,
111201101200,
#GOGOSTART
102002002002002002002000,
102002002002002002002000,
#GOGOEND
111201111201,
111111700800, //67
#MEASURE 3/4
#BPMCHANGE 300
#SCROLL 1
#GOGOSTART
300022,
233,
300022,
233,
#GOGOEND
#BARLINEOFF
#MEASURE 6/4
#SCROLL 0.8
022022202020,
#BARLINEON
#SCROLL 0.86
0330333000
#SCROLL 1
40, //73
#MEASURE 3/4
#GOGOSTART
301,
122,
112,
201110,
101,
122,
111,
202220,
100011,
140,
100011,
140,
111,
101110,
333,
333, //89
301,
122,
1
#GOGOEND
50,
000000000008000000000000000000000000,
#GOGOSTART
122,
122,
112,
201110,
100011,
140,
100011,
140,
11,
22,
33,
44, //105
#GOGOEND
2,
222,
201,
122,
7,
0,
0,
8,
101,
222,
201,
212,
7,
0,
0,
8,
300022,
200022,
200022,
2,
#MEASURE 6/4
#SCROLL 0.8
1,
70008
#SCROLL 1
4, //127
#MEASURE 3/4
#GOGOSTART
300022,
233,
300022,
233,
300022,
233,
7,
08,
302022,
233,
302022,
233,
302022,
233, //141
#GOGOEND
450,
0,
0,
000000000000000000000008000000000000,
#GOGOSTART
402222,
#GOGOEND
20
#SCROLL 1.33
0300,
#SCROLL 1
0,
0,
0,
#MEASURE 4/4
0, //151
#END

COURSE:Easy
LEVEL:5
BALLOON:5,5,5,5,3,9,9,4,5
SCOREINIT:3580
SCOREDIFF:0
#START
#BARLINEOFF
#MEASURE 1/4
0,
#BARLINEON
#MEASURE 3/4
#GOGOSTART
3,
033,
3,
033,
3,
033,
7,
08,
3,
033,
3,
033,
7,
08, //15
#GOGOEND
#MEASURE 8/4
#BPMCHANGE 200
#SCROLL 0.75
1212,
1212,
22202220,
11101110,
22202220,
100000000000100000000000100000000000000000000000500000000000000000000000000008000000000000000000,
10202220,
10202220,
10101110,
10111010,
10202220,
10202220, //27
#MEASURE 4/4
#SCROLL 0.83
301,
1,
#SCROLL 0.92
301,
1,
#SCROLL 1.02
301,
500000000000000000000000000000000000000000000008,
#SCROLL 1.13
000
#SCROLL 1.33
3,
3340, //35
#MEASURE 3/4
#BPMCHANGE 300
#SCROLL 1
#GOGOSTART
3,
101,
1,
1,
3,
101,
1,
1,
#GOGOEND
3,
#MEASURE 13/16
0000
#BPMCHANGE 375
#SCROLL 0.8
00000
#BPMCHANGE 300
#SCROLL 1
0000,
#MEASURE 3/4
3,
#MEASURE 13/16
0000
#BPMCHANGE 375
#SCROLL 0.8
00000
#BPMCHANGE 300
#SCROLL 1
0000,
#MEASURE 3/4
#GOGOSTART
111,
111,
7,
08, //51
#GOGOEND
#MEASURE 8/4
#BPMCHANGE 200
#SCROLL 0.5
1022,
1022,
11,
10107008,
#SCROLL 0.67
300102200200,
100102200200,
33,
500000000000000000000000000000000000000000000008000000000000000000000000000000000000000000000000,
#SCROLL 0.75
200000
#GOGOSTART
300002002002000000,
100002000002002002000000,
#GOGOEND
100101100200,
100101100200,
#GOGOSTART
100002000002002002000000,
100002000002002002000000,
#GOGOEND
101100101100,
111111700800, //67
#MEASURE 3/4
#BPMCHANGE 300
#SCROLL 1
#GOGOSTART
3,
033,
3,
033,
#GOGOEND
#BARLINEOFF
#MEASURE 6/4
#SCROLL 0.8
0,
#BARLINEON
#SCROLL 0.86
000000600000000000000000000000000008000000000000000000000000
#SCROLL 1
000000000000, //73
#MEASURE 3/4
#GOGOSTART
301,
111,
101,
201,
101,
111,
101,
202,
101,
130,
101,
130,
101,
1,
333,
333, //89
301,
111,
1
#GOGOEND
50,
000000000008000000000000000000000000,
#GOGOSTART
120,
120,
111,
111,
101,
130,
101,
130,
11,
11,
33,
33, //105
#GOGOEND
1,
222,
2,
2,
7,
0,
0,
8,
1,
222,
202,
2,
7,
0,
0,
8,
3,
0,
0,
0,
#MEASURE 6/4
#SCROLL 0.8
1,
70008
#SCROLL 1
0, //127
#MEASURE 3/4
#GOGOSTART
3,
033,
3,
033,
3,
033,
7,
08,
3,
044,
3,
044,
3,
044, //141
#GOGOEND
450,
0,
0,
000000000000000008000000000000000000,
#GOGOSTART
400000000000500000000000000000000008,
#GOGOEND
00
#SCROLL 1.33
0300,
#SCROLL 1
0,
0,
0,
#MEASURE 4/4
0, //151
#END
