//TJADB Project
TITLE:Kyoufuu All Back
TITLEJA:強風オールバック(feat.歌愛ユキ)
SUBTITLE:--Yukopi feat. Kaai Yuki
SUBTITLEJA:ゆこぴ
BPM:135
WAVE:Kyoufuu All Back.ogg
OFFSET:-0.515
DEMOSTART:0.493 //SONG_ID:kyallb //Shinuchi:
5470/3440/2110/1580

COURSE:Oni
LEVEL:7
BALLOON:7
SCOREINIT:480,1740
SCOREDIFF:125
#START
#GOGOSTART
1001102110102022,
1010201210404000,
1001102110102020,
#SCROLL 0.8
500000000000000000000008000000000000
#SCROLL 1
200000000000,
1002102110102022,
1010201210404000,
1001102110102022,
1001101210303000, //8
#GOGOEND
2000102010222010,
1022201010222010,
2000102010221000,
1022201010222010,
2000102010222010,
1022201010222010,
2000102010222010,
2011102010220200, //16
10121012,
11211020,
00004012,
11212010,
10121012,
11211020,
0004,
1010201010220200, //24
1002101210201011,
1010201210201011,
1002101040001011,
1010201210201000,
1002101210201011,
1010201210201000,
43434343,
600000000000000000000008000000000000400000000000, //32
#GOGOSTART
1001102110102022,
1010201210404000,
1001102110102020,
#SCROLL 0.8
500000000000000000000008000000000000
#SCROLL 1
200000000000,
1002102110102022,
1010201210404000,
1001102110102022,
1001101210303000, //40
#GOGOEND
3000201010112000,
3000201010221000,
34303430,
3040300030401111,
#GOGOSTART
2000102010222010,
1022201010222010,
2000102010222010,
2011102070000080, //48
#GOGOEND
200220202020
#GOGOSTART
3000,
1010201210404000,
1001102110102020,
#SCROLL 0.8
500000000000000000000008000000000000
#SCROLL 1
200000000000,
1002102110102022,
1010201210404000,
1001102110102022,
1001101210304000, //56
2000400110102022,
1010201210404000,
1001102110102020,
#SCROLL 0.8
500000000000000000000008000000000000
#SCROLL 1
200000000000,
1002102110102022,
1010201210404000,
1001102110102011,
1001101210303000,
1001100110102222,
1001101010004000, //66
#GOGOEND
2000102010222010,
1022201010222010,
2000102010221000,
1022201010222010,
2000102010222010,
1022201010222010,
2000102010222010,
2011102040304000,
0,
0, //76
#END

COURSE:Hard
LEVEL:5
BALLOON:6
SCOREINIT:490,2410
SCOREDIFF:128
#START
#GOGOSTART
1001100110102000,
11011440,
1001101010002000,
#SCROLL 0.8
500000000000000000000008000000000000
#SCROLL 1
000000000000,
10211210,
11211440,
1001100110102000,
1001101020303000, //8
#GOGOEND
20021120,
11201121,
20021110,
11201121,
20021120,
11201121,
20021120,
11212000, //16
10011001,
11111000,
00004001,
11112000,
10111000,
11111000,
0004,
11112000, //24
1001101010001020,
11211020,
1001101040001020,
11212010,
10121012,
11212010,
43434343,
600000000000000000000008000000000000400000000000, //32
#GOGOSTART
1001100110102000,
11211440,
1001101010002000,
#SCROLL 0.8
500000000000000000000008000000000000
#SCROLL 1
000000000000,
10211210,
11211440,
1001100110102000,
1001101020303000, //40
#GOGOEND
30021220,
30021210,
34303430,
34303430,
#GOGOSTART
10021120,
11201121,
10021120,
11217008, //48
#GOGOEND
100110101010
#GOGOSTART
3000,
11011440,
1001101010002000,
#SCROLL 0.8
500000000000000000000008000000000000
#SCROLL 1
000000000000,
10211210,
11211440,
1001100110102000,
1001101020303000, //56
1000400110102000,
11011440,
1001101010002000,
#SCROLL 0.8
500000000000000000000008000000000000
#SCROLL 1
000000000000,
10211210,
11211440,
1001100110102000,
1001101020303000,
1001100110101010,
1001101010004000, //66
#GOGOEND
20021120,
11201121,
20021110,
11201121,
20021120,
11201121,
20021120,
11214340,
0,
0, //76
#END

COURSE:Normal
LEVEL:4
BALLOON:4
SCOREINIT:580,3790
SCOREDIFF:170
#START
#GOGOSTART
10101110,
11011000,
10111010,
#SCROLL 0.8
500000000000000000000008000000000000
#SCROLL 1
000000000000,
10111010,
11101000,
10101110,
10111000, //8
#GOGOEND
20001110,
11101000,
20001120,
11101000,
20001110,
11101000,
20001110,
10111000, //16
10011000,
1110,
04,
1120,
1110,
1110,
0004,
1120, //24
10011000,
1110,
04,
1120,
1110,
1110,
3333,
600000000000000000000008000000000000400000000000, //32
#GOGOSTART
10101110,
11011000,
10111010,
#SCROLL 0.8
500000000000000000000008000000000000
#SCROLL 1
000000000000,
10111010,
11101000,
10101110,
10111000, //40
#GOGOEND
32,
32,
3333,
3333,
#GOGOSTART
10001110,
11101000,
10001110,
11107008, //48
#GOGOEND
102
#GOGOSTART
3,
11011000,
10111010,
#SCROLL 0.8
500000000000000000000008000000000000
#SCROLL 1
000000000000,
10111010,
11101000,
10101110,
10111000, //56
10401110,
11011000,
10111010,
#SCROLL 0.8
500000000000000000000008000000000000
#SCROLL 1
000000000000,
10111010,
11101000,
10101110,
10111000,
600000000000000000000000000000000000000008000000,
1114, //66
#GOGOEND
20001110,
11101000,
20001120,
11101000,
20001110,
11101000,
20001110,
11103040,
0,
0, //76
#END

COURSE:Easy
LEVEL:3
BALLOON:4
SCOREINIT:570,6190
SCOREDIFF:213
#START
#GOGOSTART
1110,
11,
1110,
#SCROLL 0.8
500000000000000000000008000000000000
#SCROLL 1
000000000000,
1110,
11,
1111,
11, //8
#GOGOEND
21,
11,
2011,
11,
21,
11,
21,
1110, //16
11,
11,
04,
1110,
11,
11,
0,
1110, //24
11,
11,
04,
1110,
11,
12,
3333,
600000000000000000000008000000000000000000000000, //32
#GOGOSTART
1110,
11,
1110,
#SCROLL 0.8
500000000000000000000008000000000000
#SCROLL 1
000000000000,
1110,
11,
1111,
12, //40
#GOGOEND
3,
3,
3333,
3330,
#GOGOSTART
21,
11,
21,
100000000000100000000000700000000000000000000008, //48
#GOGOEND
000
#GOGOSTART
3,
11,
1110,
#SCROLL 0.8
500000000000000000000008000000000000
#SCROLL 1
000000000000,
1110,
11,
1111,
11, //56
2110,
11,
1110,
#SCROLL 0.8
500000000000000000000008000000000000
#SCROLL 1
000000000000,
1110,
11,
1111,
12,
600000000000000000000000000008000000000000000000,
1004, //66
#GOGOEND
21,
11,
2011,
11,
21,
11,
21,
1133,
0,
0, //76
#END
