//TJADB Project
TITLE:Fallen Angel
TITLEJA:Fallen Angel
SUBTITLE:--Rio Hamamoto (BNSI) feat. ZOLA PROJECT
SUBTITLEJA:濱本理央(BNSI) feat. ZOLA PROJECT
BPM:168
WAVE:Fallen Angel.ogg
OFFSET:-1.578
DEMOSTART:58.721 //SONG_ID:zolfla

COURSE:Oni
LEVEL:9
BALLOON:7,7
SCOREINIT:1180
SCOREDIFF:0
#START
0,
0,
00000012,
1010202011102220,
1212121022112000,
500000000000000000000000000008000000000000100100,
10001111,
02,
22, //9
1011101110102020,
1110202011102020,
1011101110102020,
1110101020102020,
1011101110102020,
1110202011102020,
1000101011101010,
3000002210002000,
1010201120101110,
1010201120100010,
1010201120102011,
2010201021102000,
1010201120101110,
1011201120112010,
500000000000000000000008000000000000100000000000,
78, //25
20021011,
2002002000100010,
1002201110022011,
1022201110102011,
1022102210102020,
1022102210203030,
00001001,
11111101,
10001001,
11110111,
0001200210102010,
1221221010101110,
0010101020120110,
01120210,
1111222211221110, //40
#GOGOSTART
1222122211112222,
1212121211112222,
1222121212221212,
1122112211112222,
1222122211112222,
1212121211221122,
1111222212121212,
1022102110101010,
#GOGOEND
2220202022202020,
2220202022222020,
2220202022202020,
2220202022222022,
1011101110102020,
1110202011102020,
1011101110102020,
1110101020102020, //56
1011101110102020,
1110202011102020,
1000101011101010,
3000002210002000,
1010201120101110,
1010201120100010,
1010201120102011,
2010201021102000,
1010201120101110,
1011201120112010,
500000000000000000000008000000000000100000000000,
78,
2,
2002002000001010,
1002201110022011,
1022201110102011,
1022102210102020,
1022102210203030, //74
0,
0,
20212021,
22212211,
20212021,
20212121,
20212021,
20212122,
22,
22,
22,
20002011,
1220202012202020,
1212121122112000,
500000000000000000000000000008000000000000100100,
10201220,
1000221020020011,
1000100022211110, //92
#GOGOSTART
1222122211112222,
1212121211112222,
1222121212221212,
1122112211112222,
1222122211112222,
1212121211221122,
1111222212121212,
1022102110101010,
#GOGOEND
12,
2,
0,
0, //104
#END

COURSE:Hard
LEVEL:6
BALLOON:6,6,5
SCOREINIT:1910
SCOREDIFF:0
#START
0,
0,
0,
11221122,
11221020,
500000000000000000000000000008000000000000100100,
10001111,
02,
22, //9
10111120,
1110200011102000,
10111120,
1110100020002000,
10111120,
1110200011102000,
1000101011101000,
30013020,
10222210,
10222101,
10222220,
1000202022202000,
10222210,
10222220,
500000000000000000000008000000000000100000000000,
78, //25
20001022,
2002002000100010,
1000001110000011,
1000001110002000,
12121022,
12121033,
00000001,
11111101,
10000001,
11110111,
00201021,
11111111,
0010101020020010,
01110110,
500000000000000000000000000000000008000000000000, //40
#GOGOSTART
1011101010102000,
1011101020002000,
1011101010102020,
1011101020002000,
1011101010102000,
1011101011101000,
500000000000000000000000000008000000000000100100,
1000100110101010,
#GOGOEND
22202220,
22202020,
22202220,
22202022,
10111120,
1110200011102000,
10111120,
1110100020002000, //56
10111120,
1110200011102000,
1000101011101000,
30013020,
10222210,
10222101,
10222220,
1000202022202000,
10222210,
10222220,
500000000000000000000008000000000000100000000000,
78,
2,
2002002000001010,
1000001110000011,
1000001110002000,
12121022,
12121033, //74
0,
0,
20222020,
20222220,
20222022,
20222220,
20222022,
20222222,
0,
0,
22,
20002011,
12221222,
12221222,
500000000000000000000000000008000000000000100100,
10201220,
7000000080000011,
10102211, //92
#GOGOSTART
1011101010102000,
1011101020002000,
1011101010102020,
1011101020002000,
1011101010102000,
1011101011101000,
500000000000000000000000000008000000000000100100,
1000100110101010,
#GOGOEND
12,
2,
0,
0, //104
#END

COURSE:Normal
LEVEL:5
BALLOON:4,4,6
SCOREINIT:4000
SCOREDIFF:0
#START
0,
0,
0,
11,
11,
500000000000000000000000000000000008000000000000,
1,
0,
0, //9
1110,
2220,
1110,
2220,
1111,
1110,
1111,
33,
1220,
1220,
1222,
1111,
1220,
1222,
500000000000000000000008000000000000100000000000,
78, //25
2,
20000011,
10011001,
10011000,
1111,
10101011,
00000001,
01010101,
00000001,
01010101,
00000001,
01010111,
00000001,
00010100,
500000000000000000000000000000000008000000000000, //40
#GOGOSTART
10111010,
11101010,
10111010,
11102020,
10111010,
11101110,
500000000000000000000000000008000000000000000000,
600000000000000000000000000008000000000000000000,
#GOGOEND
22,
22,
22,
22,
1111,
2220,
1111,
2220, //56
1111,
1110,
1111,
33,
1220,
1220,
1222,
1110,
1220,
1222,
500000000000000000000008000000000000100000000000,
78,
2,
20000011,
10011001,
10011000,
1111,
10101033, //74
0,
0,
2,
2,
2,
22,
2,
2,
2,
0,
0,
0,
11,
11,
500000000000000000000000000000000008000000000000,
3,
7008,
3, //92
#GOGOSTART
10111010,
11111010,
10111010,
11111010,
10111010,
11111110,
500000000000000000000000000008000000000000000000,
600000000000000000000000000000000000000000000008,
#GOGOEND
02,
2,
0,
0, //104
#END

COURSE:Easy
LEVEL:4
BALLOON:2
SCOREINIT:7390
SCOREDIFF:0
#START
0,
0,
0,
11,
11,
1,
1,
0,
0, //9
11,
1,
11,
1,
11,
11,
1,
3,
0110,
0110,
0111,
11,
0110,
0110,
1001,
1, //25
2,
2,
22,
22,
11,
10000003,
0,
00000001,
0,
00000001,
0,
00000001,
00000001,
0,
500000000000000000000000000008000000000000000000, //40
#GOGOSTART
11,
1110,
11,
1110,
11,
1110,
500000000000000000000000000008000000000000000000,
600000000000000000000000000008000000000000000000,
#GOGOEND
2,
2,
2,
2,
11,
1,
11,
1, //56
11,
11,
1,
33,
0110,
0110,
0111,
11,
0110,
0110,
1001,
1,
2,
2,
11,
11,
1,
10000003, //74
0,
0,
2,
2,
2,
2,
2,
2,
2,
0,
0,
0,
11,
11,
1,
3,
78,
3, //92
#GOGOSTART
11,
1110,
11,
1110,
11,
1111,
500000000000000000000000000008000000000000000000,
600000000000000000000000000000000000000000000008,
#GOGOEND
0,
0,
0,
0, //104
#END
