//TJADB Project
TITLE:Rabbit Hole
TITLEJA:ラビットホール
SUBTITLE:--DECO*27 feat. Hatsune Miku
SUBTITLEJA:DECO*27 feat. 初音ミク
BPM:173
WAVE:Rabbit Hole.ogg
OFFSET:-1.078
DEMOSTART:41.452 //SONG_ID:mikrbh

COURSE:Oni
LEVEL:9
BALLOON:3,3,3,5,5,5,5,3,3,3,3,3,3,3,3,3,3,3,3
SCOREINIT:1090
SCOREDIFF:0
#START
#BARLINEOFF
#MEASURE 11/8
0,
#BARLINEON
#MEASURE 4/4
2022101210201000,
2002202010201020,
12220210,
2002202010201020,
12220221,
2002202010201020,
12220210,
2002202010201020,
12221221, //10
0010101012200010,
200000100100100000100000200000000000500000000008,
01112201,
21112010,
1000100010200011,
12121111,
10403002,
0010201120102010,
20787878, //19
1011101110111011,
22220222,
1011101110111011,
22220222,
10102201,
12121111,
10403002,
0011201020102010,
2222,
1011111120004000, //29
#GOGOSTART
1010101110111020,
1011101110222020,
1011102220222020,
1022202220222020,
2222101211121020,
1112102011121010,
1110222012121020,
1011101120201000, //37
2010101110112020,
1011101120222020,
1011202220222020,
2022202220222020,
2222101211121020,
1112102011121010,
1110222012121020,
1022202220201000,
#GOGOEND
0, //46
2002202010201020,
12220210,
2002202010201020,
12220221,
2020200030003022,
12220210,
2002202010201020,
12221221, //54
70802201,
01012201,
11022201,
211211200400,
70802201,
01012210,
211211211211,
211211200400, //62
70802201,
01012201,
11022201,
122122100400,
70802201,
01012210,
122122122122,
122122100400,
1001,
3334, //72
2020202220222020,
2022202020222020,
2022202220222020,
2022202220222020,
2222101211121020,
1112102011121020,
1110222012121020,
1011101120201000, //80
#GOGOSTART
2010101110112020,
1011101120222020,
1011202220222020,
2022202220222020,
2222101211121020,
1112102011121010,
1111222212121020,
1111111120201000, //88
1010101110111020,
1011101110222020,
1011102220222020,
1022202220222020,
2222101211121020,
1112102011121010,
1111222212121020,
2222222220201000,
#GOGOEND
0, //97
1110111011101110,
12112212,
1110111011101110,
12111221,
1110111011101110,
12112040,
30011211,
12121000, //105
78787878,
12112212,
78787878,
12111221,
78787878,
12112040,
30011211,
12121304,
0, //114
#END

COURSE:Hard
LEVEL:7
BALLOON:4,4,4,4
SCOREINIT:1610
SCOREDIFF:0
#START
#BARLINEOFF
#MEASURE 11/8
0,
#BARLINEON
#MEASURE 4/4
10101110,
2111,
10101220,
2111,
10102220,
2111,
10101220,
2111,
10102222, //10
01111101,
100000100000100000100000200000000000500000000008,
01111101,
11112010,
10101101,
10101111,
10202001,
01111010,
4444, //19
10111110,
22220111,
10111110,
22220222,
10101101,
10101111,
10202001,
01112020,
1111,
3340, //29
#GOGOSTART
11101110,
22202220,
1011100010111000,
2022200020222000,
1010101011102000,
1110100022202000,
11111120,
1011100020202000, //37
11201120,
11201120,
1011100010111000,
2022200020222000,
1010201011102000,
1110100022202000,
11211120,
1011100020202000,
#GOGOEND
0, //46
2111,
10101220,
2111,
10101220,
22201010,
10101220,
2111,
10102220, //54
70802201,
01012201,
11022201,
1114,
70802201,
01012210,
5,
000000000008000000000000200000000000400000000000, //62
70802201,
01012201,
11022201,
1114,
70802201,
01012210,
5,
000000000008000000000000200000000000400000000000,
1001,
3344, //72
20202220,
20202220,
22202220,
22222220,
1010101011101000,
1110100022202000,
11111120,
1011101020202000, //80
#GOGOSTART
1010201010111000,
1010201010111000,
1011100010111000,
2022200020222000,
1010201011102000,
1110100022202000,
1110201011102000,
1011101020202000, //88
1010101010111000,
2020202020222000,
1011100010111000,
2022200020222000,
1010101011102000,
1110100022202000,
1110101011102000,
2022202020202000,
#GOGOEND
0, //97
1212,
11112222,
1212,
11112222,
1212,
11111040,
40011010,
11111000, //105
500008000000500008000000500008000000500008000000,
11112222,
500008000000500008000000500008000000500008000000,
11112222,
500008000000500008000000500008000000500008000000,
11111040,
40011110,
10111204,
0, //114
#END

COURSE:Normal
LEVEL:5
BALLOON:3,3,3,3
SCOREINIT:2610
SCOREDIFF:0
#START
#BARLINEOFF
#MEASURE 11/8
0,
#BARLINEON
#MEASURE 4/4
500000000008000000000000100000000000100000000000,
2011,
1012,
2011,
1022,
2011,
1012,
2011,
1022, //10
01101001,
1122,
01101001,
1122,
1110,
1111,
10202001,
01101000,
4444, //19
1111,
20200110,
1111,
20200220,
10101100,
1111,
10202001,
01102000,
1111,
3340, //29
#GOGOSTART
1111,
2222,
10101110,
20202220,
100000000000100000000000500000000008000000000000,
500000000008000000000000500000000008000000000000,
1112,
10102220, //37
1212,
1212,
10101110,
20202220,
100000000000200000000000500000000008000000000000,
500000000008000000000000500000000008000000000000,
1212,
10102220,
#GOGOEND
0, //46
2011,
1012,
2011,
1011,
22201010,
1012,
2011,
1022, //54
70802201,
01002200,
11002200,
1124,
70802201,
01002200,
5,
000000000008000000000000200000000000400000000000, //62
70802201,
01002200,
11002200,
1124,
70802201,
01002200,
5,
000000000008000000000000200000000000400000000000,
1,
3344, //72
2,
2,
22,
2220,
1111,
2222,
1110,
10102220, //80
#GOGOSTART
10201110,
10201110,
11101110,
22202220,
100000000000200000000000500000000008000000000000,
500000000008000000000000500000000008000000000000,
10201110,
10202220, //88
10101110,
20202220,
11101110,
22202220,
100000000000100000000000500000000008000000000000,
500000000008000000000000500000000008000000000000,
10101110,
20202220,
#GOGOEND
0, //97
1111,
11101110,
1111,
11102220,
1111,
11101040,
41,
1130, //105
500000000008000000000000500000000008000000000000,
11101110,
500000000008000000000000500000000008000000000000,
11102220,
500000000008000000000000500000000008000000000000,
11101040,
41,
10101204,
0, //114
#END

COURSE:Easy
LEVEL:4
BALLOON:
SCOREINIT:4340
SCOREDIFF:0
#START
#BARLINEOFF
#MEASURE 11/8
0,
#BARLINEON
#MEASURE 4/4
500000000000000000000008000000000000000000000000,
1011,
1,
1011,
12,
1011,
1,
1011,
12, //10
01,
02,
01,
02,
11,
1110,
11,
1110,
22, //19
11,
12,
11,
12,
1110,
1110,
12,
1110,
11,
3330, //29
#GOGOSTART
1110,
2220,
1110,
2220,
100000000000100000000000500000000008000000000000,
500000000008000000000000500000000008000000000000,
1110,
2220, //37
1120,
1120,
1110,
2220,
100000000000100000000000500000000008000000000000,
500000000008000000000000500000000008000000000000,
1110,
2220,
#GOGOEND
0, //46
1011,
1,
1011,
1,
2011,
1,
1011,
12, //54
500000000000000000000008000000000000000000000000,
12,
12,
1120,
500000000000000000000008000000000000000000000000,
12,
500000000000000000000000000000000000000000000008,
02, //62
500000000000000000000008000000000000000000000000,
12,
12,
1120,
500000000000000000000008000000000000000000000000,
12,
500000000000000000000000000000000000000000000008,
02,
1,
34, //72
2,
2,
22,
22,
11,
22,
11,
1120, //80
#GOGOSTART
1120,
1120,
1111,
2222,
100000000000100000000000500000000008000000000000,
500000000008000000000000500000000008000000000000,
1110,
2220, //88
1110,
2220,
1111,
2222,
100000000000100000000000500000000008000000000000,
500000000008000000000000500000000008000000000000,
1110,
2220,
#GOGOEND
0, //97
1011,
11,
1011,
12,
1011,
11,
41,
1130, //105
500000000008000000000000500000000008000000000000,
11,
500000000008000000000000500000000008000000000000,
12,
500000000008000000000000500000000008000000000000,
11,
41,
10101004,
0, //114
#END
