//TJADB Project
TITLE:Hitorigotsu~Band Ver.~
TITLEJA:ひとりごつ~バンドVer.~
SUBTITLE:--Hachiware / From "Chiikawa"
SUBTITLEJA:ハチワレ 「ちいかわ」より
BPM:113.490
WAVE:Hitorigotsu Band Ver.ogg
OFFSET:-1.079
DEMOSTART:52.993

COURSE:Oni
LEVEL:3
BALLOON:20
SCOREINIT:5740
SCOREDIFF:0
#START
100201100201,
#BPMCHANGE 113.263
101201100200,
#BPMCHANGE 111.169
#SCROLL 1.02
101200100201,
#BPMCHANGE 109.923
#SCROLL 1.03
100201100202,
#BPMCHANGE 111.445
#SCROLL 1.01
22022202,
#BPMCHANGE 114.309
#SCROLL 0.99
200200200000000000200020, //6
#BPMCHANGE 112.796
#SCROLL 1
100201100201,
#BPMCHANGE 111.215
#SCROLL 1.02
101201100200,
#BPMCHANGE 112
#SCROLL 1.01
700000000000000000000000000000000000000000000008,
0001, //10
#BPMCHANGE 111.393
100201101201,
#BPMCHANGE 111.775
101201100200,
#BPMCHANGE 112.842
#SCROLL 1
101201101201,
#BPMCHANGE 112
#SCROLL 1.01
100000000000200000001000100000000000100000050000,
000000000000000000000008000000000000200000001000, //15
#BPMCHANGE 112.660
#SCROLL 1
100201100201,
#BPMCHANGE 112.164
#SCROLL 1.01
101201100200,
#BPMCHANGE 109.073
#SCROLL 1.04
500000000000000000000000000008000000000000000000,
#BPMCHANGE 114.229
#SCROLL 0.99
500000000000000000000000000008000000000000000000,
#BPMCHANGE 112
#SCROLL 1.01
300101101202, //20
#BPMCHANGE 113.668
#SCROLL 0.99
#GOGOSTART
200222200222,
#BPMCHANGE 112.165
#SCROLL 1.01
200222202202,
#BPMCHANGE 109.496
#SCROLL 1.03
3,
#BPMCHANGE 112.758
#SCROLL 1
101101101200, //24
#BPMCHANGE 110.919
#SCROLL 1.02
300202100202,
#BPMCHANGE 114.849
#SCROLL 0.98
102101202200,
#BPMCHANGE 110.339
#SCROLL 1.02
100202100202,
#BPMCHANGE 112.125
#SCROLL 1.01
101202201102, //28
#BPMCHANGE 111.876
100202100202,
#BPMCHANGE 113.245
#SCROLL 1
100202101202,
#GOGOEND
#BPMCHANGE 109.549
#SCROLL 1.03
1,
#BPMCHANGE 113.748
#SCROLL 0.99
1222, //32
#BPMCHANGE 111.060
#SCROLL 1.02
500000000000000000000000000008000000000000000000,
#BPMCHANGE 114.325
#SCROLL 0.99
500000000000000000000000000008000000000000000000,
#BPMCHANGE 110.251
#SCROLL 1.02
300102201202,
#BPMCHANGE 112
#SCROLL 1.01
1,
0, //37
#END

COURSE:Hard
LEVEL:3
BALLOON:17
SCOREINIT:7440
SCOREDIFF:0
#START
1212,
#BPMCHANGE 113.263
1112,
#BPMCHANGE 111.169
#SCROLL 1.02
101100100201,
#BPMCHANGE 109.923
#SCROLL 1.03
1212,
#BPMCHANGE 111.445
#SCROLL 1.01
22,
#BPMCHANGE 114.309
#SCROLL 0.99
2202, //6
#BPMCHANGE 112.796
#SCROLL 1
100201100201,
#BPMCHANGE 111.215
#SCROLL 1.02
101100100200,
#BPMCHANGE 112
#SCROLL 1.01
700000000000000000000000000000000000000000000008,
0001, //10
#BPMCHANGE 111.393
100201100200,
#BPMCHANGE 111.775
100201100200,
#BPMCHANGE 112.842
#SCROLL 1
101101100200,
#BPMCHANGE 112
#SCROLL 1.01
100000000000100000001000100000000000200000050000,
000000000000000000000008000000000000100000001000, //15
#BPMCHANGE 112.660
#SCROLL 1
100101100101,
#BPMCHANGE 112.164
#SCROLL 1.01
101101100200,
#BPMCHANGE 109.073
#SCROLL 1.04
500000000000000000000000000008000000000000000000,
#BPMCHANGE 114.229
#SCROLL 0.99
500000000000000000000000000008000000000000000000,
#BPMCHANGE 112
#SCROLL 1.01
600000000000000000000000000008000000000000000000, //20
#BPMCHANGE 113.668
#SCROLL 0.99
#GOGOSTART
200202200202,
#BPMCHANGE 112.165
#SCROLL 1.01
200200202200,
#BPMCHANGE 109.496
#SCROLL 1.03
3,
#BPMCHANGE 112.758
#SCROLL 1
101101100200, //24
#BPMCHANGE 110.919
#SCROLL 1.02
300101100100,
#BPMCHANGE 114.849
#SCROLL 0.98
100101101100,
#BPMCHANGE 110.339
#SCROLL 1.02
100101100100,
#BPMCHANGE 112.125
#SCROLL 1.01
101101101101, //28
#BPMCHANGE 111.876
100101100100,
#BPMCHANGE 113.245
#SCROLL 1
100101101001,
#GOGOEND
#BPMCHANGE 109.549
#SCROLL 1.03
1,
#BPMCHANGE 113.748
#SCROLL 0.99
1, //32
#BPMCHANGE 111.060
#SCROLL 1.02
500000000000000000000000000008000000000000000000,
#BPMCHANGE 114.325
#SCROLL 0.99
500000000000000000000000000008000000000000000000,
#BPMCHANGE 110.251
#SCROLL 1.02
300102201101,
#BPMCHANGE 112
#SCROLL 1.01
1,
0, //37
#END

COURSE:Normal
LEVEL:1
BALLOON:12,10
SCOREINIT:14580
SCOREDIFF:0
#START
11,
#BPMCHANGE 113.263
1110,
#BPMCHANGE 111.169
#SCROLL 1.02
11,
#BPMCHANGE 109.923
#SCROLL 1.03
1110,
#BPMCHANGE 111.445
#SCROLL 1.01
22,
#BPMCHANGE 114.309
#SCROLL 0.99
2200, //6
#BPMCHANGE 112.796
#SCROLL 1
11,
#BPMCHANGE 111.215
#SCROLL 1.02
1110,
#BPMCHANGE 112
#SCROLL 1.01
700000000000000000000000000000000000000000000008,
0, //10
#BPMCHANGE 111.393
1110,
#BPMCHANGE 111.775
1120,
#BPMCHANGE 112.842
#SCROLL 1
1111,
#BPMCHANGE 112
#SCROLL 1.01
100000000000000000000000200000000000000000050000,
000000000000000000000008000000000000000000000000, //15
#BPMCHANGE 112.660
#SCROLL 1
1110,
#BPMCHANGE 112.164
#SCROLL 1.01
1110,
#BPMCHANGE 109.073
#SCROLL 1.04
500000000000000000000000000008000000000000000000,
#BPMCHANGE 114.229
#SCROLL 0.99
500000000000000000000000000008000000000000000000,
#BPMCHANGE 112
#SCROLL 1.01
600000000000000000000000000008000000000000000000, //20
#BPMCHANGE 113.668
#SCROLL 0.99
#GOGOSTART
22,
#BPMCHANGE 112.165
#SCROLL 1.01
2222,
#BPMCHANGE 109.496
#SCROLL 1.03
3,
#BPMCHANGE 112.758
#SCROLL 1
11, //24
#BPMCHANGE 110.919
#SCROLL 1.02
1110,
#BPMCHANGE 114.849
#SCROLL 0.98
1111,
#BPMCHANGE 110.339
#SCROLL 1.02
1110,
#BPMCHANGE 112.125
#SCROLL 1.01
1111, //28
#BPMCHANGE 111.876
1110,
#BPMCHANGE 113.245
#SCROLL 1
1110,
#GOGOEND
#BPMCHANGE 109.549
#SCROLL 1.03
1,
#BPMCHANGE 113.748
#SCROLL 0.99
1, //32
#BPMCHANGE 111.060
#SCROLL 1.02
500000000000000000000000000008000000000000000000,
#BPMCHANGE 114.325
#SCROLL 0.99
500000000000000000000000000008000000000000000000,
#BPMCHANGE 110.251
#SCROLL 1.02
9009,
#BPMCHANGE 112
#SCROLL 1.01
8,
0, //37
#END

COURSE:Easy
LEVEL:1
BALLOON:9,7
SCOREINIT:19870
SCOREDIFF:0
#START
11,
#BPMCHANGE 113.263
1,
#BPMCHANGE 111.169
#SCROLL 1.02
11,
#BPMCHANGE 109.923
#SCROLL 1.03
1,
#BPMCHANGE 111.445
#SCROLL 1.01
2,
#BPMCHANGE 114.309
#SCROLL 0.99
2, //6
#BPMCHANGE 112.796
#SCROLL 1
11,
#BPMCHANGE 111.215
#SCROLL 1.02
11,
#BPMCHANGE 112
#SCROLL 1.01
700000000000000000000000000000000000000000000008,
0, //10
#BPMCHANGE 111.393
1110,
#BPMCHANGE 111.775
12,
#BPMCHANGE 112.842
#SCROLL 1
1110,
#BPMCHANGE 112
#SCROLL 1.01
100000000000000000000000100000000000000000050000,
000000000000000000000008000000000000000000000000, //15
#BPMCHANGE 112.660
#SCROLL 1
11,
#BPMCHANGE 112.164
#SCROLL 1.01
11,
#BPMCHANGE 109.073
#SCROLL 1.04
500000000000000000000000000008000000000000000000,
#BPMCHANGE 114.229
#SCROLL 0.99
500000000000000000000000000008000000000000000000,
#BPMCHANGE 112
#SCROLL 1.01
600000000000000000000000000008000000000000000000, //20
#BPMCHANGE 113.668
#SCROLL 0.99
#GOGOSTART
22,
#BPMCHANGE 112.165
#SCROLL 1.01
2220,
#BPMCHANGE 109.496
#SCROLL 1.03
3,
#BPMCHANGE 112.758
#SCROLL 1
1, //24
#BPMCHANGE 110.919
#SCROLL 1.02
11,
#BPMCHANGE 114.849
#SCROLL 0.98
1110,
#BPMCHANGE 110.339
#SCROLL 1.02
11,
#BPMCHANGE 112.125
#SCROLL 1.01
1110, //28
#BPMCHANGE 111.876
11,
#BPMCHANGE 113.245
#SCROLL 1
1110,
#GOGOEND
#BPMCHANGE 109.549
#SCROLL 1.03
1,
#BPMCHANGE 113.748
#SCROLL 0.99
1, //32
#BPMCHANGE 111.060
#SCROLL 1.02
500000000000000000000000000008000000000000000000,
#BPMCHANGE 114.325
#SCROLL 0.99
500000000000000000000000000008000000000000000000,
#BPMCHANGE 110.251
#SCROLL 1.02
9009,
#BPMCHANGE 112
#SCROLL 1.01
8,
0, //37
#END
