//TJADB Project
TITLE:Sai Hate no Mahoutsukai
TITLEJA:最果の魔法使い
SUBTITLE:--Halv
SUBTITLEJA:Halv
BPM:210
WAVE:Sai Hate no Mahoutsukai.ogg
OFFSET:-1.385
DEMOSTART:51.668

COURSE:Edit
LEVEL:10
BALLOON:5
SCOREINIT:860
SCOREDIFF:0
#START
2,
2,
2,
2,
300222200100100000300222,
200000100000100000000000200202020200200000200000,
300222200100100000300222,
200000100000100000000000100202020200100000200000, //8
300222200100100000300222,
200000100000100000000000200202020200200000200000,
300222200100100000300222,
200100100000101020202010,
1020102010201012,
1020102010011022,
1020102010201012,
1020102010011022, //16
#GOGOSTART
1012221022102110,
#GOGOEND
2020202022022022,
#GOGOSTART
1012221022102110,
#GOGOEND
200000200000202020200200100000100000100200200200,
1020102010201012,
1020102010011022,
1020102010201012,
1020102010011022, //24
#GOGOSTART
1012221022102110,
20122210
#GOGOEND
20202020,
#GOGOSTART
1012221022102110,
#GOGOEND
202010201020700000000800,
122222122222,
211122112122,
222122122222,
122112111222, //32
122222122222,
211122112122,
222122122222,
122112111222,
122122122112,
122122112121,
122122122112,
122122112121, //40
100010002220100010001000,
100010002220100010001010,
121212121212,
100100200200100100200200100200100200500008000000,
#GOGOSTART
1012101012101111,
100000200200102020100000100200200000100000200000,
100200200100200200100000000000200000000000500008,
000000202020200000500000000008000000100200200200,
1012101012101111,
100000200000200000500008000000100100200100200100,
112221122112,
112221122112, //52
#GOGOEND
1012
#GOGOSTART
101012101111,
100000200200102020100000100000100100200100200100,
100000202020200000100000000000100000000000500008,
000000
#GOGOEND
300000003000000004000000040000000300000000, //56
#GOGOSTART
300000202020100000100000000000100000200200100000,
300000202020100000100000000000100000200200100000,
202012102012,
102010102010201010222222,
#GOGOEND
2220102210201012,
100200200000100000200000100202020200100000200000,
2220102210201012,
100200200000100000200000100201010200100000200000,
2220102210201022,
100000200000100000200000100202020100100000100000,
100000200200100000200200100000100000100202020200,
100200100200100000100000100020001000100020001000, //68
#MEASURE 3/4
112,
220000100000200000,
201022,
220000100000100000,
202111,
220000100000200000,
201122,
220000100000200000,
101221,
220000100000200000,
201112,
220000000200000000, //80
111211,
211212,
211211,
201022202020,
211221211,
221222111,
200020002000200010002000100200100100, //87
122211221112,
200200100100200200100200101010100200,
101010200200101020200200102020200200,
122210,
122210,
122210,
#SCROLL 7.65
500000000000000000000008000000000000, //94
#MEASURE 4/4
#SCROLL 1
2222102221202212,
200000200000100202020200100000000100000000100000,
#GOGOSTART
30
#GOGOEND
12103012103012,
100000300000100200100200100200200200100202020200,
#GOGOSTART
1012101012101111,
100000200200102020100000100200000200100000200000,
3022221012221022,
200200100000100200200100000200200200100202020200, //102
#GOGOEND
1022
#GOGOSTART
102010221021,
100100200200102020100000100000100100200100200100,
100000202020200000100000000000100000000000500008,
000000
#GOGOEND
300000003000000004000000040000000300000000, //106
#GOGOSTART
300000202020100000100000000000100000100200100000,
300000202020100000100000000000100000100200100000,
300000201010200000100000000000100000100200100000,
300000201010200000100000000000100000100200100000, //110
212212212212,
2121212121212121,
#GOGOEND
#SCROLL 7.65
500000000000000000000000000000000008000000000000, //113
#SCROLL 1
300000003000000202020200100010001000200010002000,
300000003000000202020200100020001000200010001000,
300000001000100202020200100020001000200010002000,
300000001000100202020200100020002000100020002000,
300000001000200102020100200010001000200010001000,
300000001000200102020100200010002000200020001000,
300000001000200102020100200010001000200102020100,
200100100100200200100100201010101010202010101010,
0,
0,
0, //124
#END

COURSE:Oni
LEVEL:9
BALLOON:4,5,2,5,6,2
SCOREINIT:1220
SCOREDIFF:0
#START
22112022,
1020200022201010,
22112022,
12207008,
1110201020002220,
1020200011201010,
1110201020002220,
1020200020102220, //8
1110201020002220,
1020200011201010,
1110201020002220,
100000200000200000000000100020002000100020002000,
1000201022101020,
1000201011102010,
1000201022101020,
1000201022202000, //16
#GOGOSTART
33030303,
#GOGOEND
12212212,
#GOGOSTART
33030303,
#GOGOEND
1011222220201020,
1000201022101020,
1000201011102010,
1000201022101020,
1000201022202000, //24
#GOGOSTART
33030304,
0404
#GOGOEND
1122,
#GOGOSTART
33040404,
#GOGOEND
111222000000,
11101022,
11021120,
11102112,
12112212, //32
10111022,
12021022,
10021012,
0022201070000080,
4222,
100200200222,
1222,
100200222200, //40
#SCROLL 1.33
330334,
303000303044,
303040303044,
500000000000000000000000000000000008000000000000,
#SCROLL 1
#GOGOSTART
1012102012101122,
100200111100000100100200,
1022203000400030,
000000100000100000500000000008000000100100200200,
1012102012101122,
1010202000121010,
322222322322,
322222322322, //52
#GOGOEND
1012
#GOGOSTART
102012101122,
100100222200000200200100,
2022203000300040,
000000
#GOGOEND
400000003000000003000000040000000300000000, //56
#GOGOSTART
3011202000200020,
1011202000200020,
101021101021,
201010201010201010700800,
#GOGOEND
22112022,
1020200022201010,
22112022,
12207008,
2020101120001020,
1012200022201010,
1020101120001020,
100000100200200000200000200020001000200020001000, //68
#MEASURE 3/4
#SCROLL 0.5
102,
#BARLINEOFF
202,
#BARLINEON
101022,
#BARLINEOFF
200000,
#BARLINEON
102,
#BARLINEOFF
202,
#BARLINEON
101022,
#BARLINEOFF
200000,
#BARLINEON
100110,
#BARLINEOFF
101020,
#BARLINEON
101122,
#BARLINEOFF
200100, //80
#BARLINEON
#SCROLL 0.6
122122,
122122,
#SCROLL 0.7
122122,
122122,
#SCROLL 0.8
122111222,
111222111,
#SCROLL 0.9
222111500,
0,
0,
000000000000000000000000000008000000, //90
#SCROLL 1
221120,
221120,
221120,
7008, //94
#MEASURE 4/4
2022202022202220,
2020100020020020,
#GOGOSTART
30
#GOGOEND
11203011203011,
2030112211117080,
#GOGOSTART
1011201011201122,
100000200000101010100000200000000200000000200000,
3011203011203011,
200000300000100100200200500000000000000008000000,
#GOGOEND
1011
#GOGOSTART
201011201122,
100200222200000200200100,
2022203000300040,
000000
#GOGOEND
400000003000000003000000040000000300000000, //106
#GOGOSTART
3011202000100020,
3011202000100020,
4011202000100020,
4011202000100020,
122122122122,
500000000000000000000000000000000000000000000008,
#GOGOEND
0, //113
303011211121,
303011211121,
404021222122,
404021222122,
303011221122,
303011221122,
303011212212,
600000000000000000000000000000000000000000000008,
0,
0,
0, //124
#END

COURSE:Hard
LEVEL:7
BALLOON:3,8,3
SCOREINIT:2130
SCOREDIFF:0
#START
20022020,
02202020,
20022020,
02207008,
10212020,
12201210,
10212020,
12202120, //8
10212020,
12201210,
10212020,
100200200000202020200000,
10211020,
10102121,
10211020,
10212120, //16
#GOGOSTART
33030303,
#GOGOEND
00202220,
#GOGOSTART
33030303,
#GOGOEND
0000222020201000,
10211020,
10102120,
10211020,
10212120, //24
#GOGOSTART
33030304,
0404
#GOGOEND
0000,
#GOGOSTART
33040404,
#GOGOEND
0,
21,
10021020,
10001001,
01101000, //32
11,
10021020,
10001001,
01022000,
4222,
1222,
1222,
1222, //40
#SCROLL 1.33
330330,
330330,
600000000000000000000000000000000000000000000008,
0, //44
#SCROLL 1
#GOGOSTART
1011101011101000,
12210112,
10030403,
01120000,
1011101011101000,
11220220,
3233,
3233, //52
#GOGOEND
1011
#GOGOSTART
101011101000,
11220221,
20030304,
000000
#GOGOEND
400000003000000003000000040000000300000000,
#GOGOSTART
31120202,
11120202,
112112,
7008, //60
#GOGOEND
20222010,
22202000,
20222010,
22207008,
20121010,
12102211,
10121010,
12102000, //68
#MEASURE 3/4
#SCROLL 0.5
102,
#BARLINEOFF
202,
#BARLINEON
112,
#BARLINEOFF
2,
#BARLINEON
102,
#BARLINEOFF
202,
#BARLINEON
112,
#BARLINEOFF
2,
#BARLINEON
101,
#BARLINEOFF
202,
#BARLINEON
112,
#BARLINEOFF
22, //80
#BARLINEON
#SCROLL 0.6
31,
12,
#SCROLL 0.7
11,
12,
#SCROLL 0.8
3,
1,
#SCROLL 0.9
105,
0,
0,
000000000000000000000000000000000000000000000008, //90
#SCROLL 1
0,
0,
0,
4, //94
#MEASURE 4/4
20020020,
2000000020020020,
#GOGOSTART
30
#GOGOEND
00003000003000,
03001020,
#GOGOSTART
1011101011102000,
1020201020020020,
30030030,
000000300000000000000000500000000000000008000000, //102
#GOGOEND
1011
#GOGOSTART
101011102000,
12210221,
20030304,
000000
#GOGOEND
400000003000000003000000040000000300000000,
#GOGOSTART
31120202,
31120202,
41120202,
41120202, //110
5,
000000000000000000000000000000000000000000000008,
#GOGOEND
0, //113
330334,
330333,
440443,
444444,
330334,
330334,
333333,
600000000000000000000000000000000000000000000008,
0,
0,
0, //124
#END

COURSE:Normal
LEVEL:7
BALLOON:6
SCOREINIT:3280
SCOREDIFF:0
#START
2002,
0022,
2002,
02,
10111010,
11100000,
10111010,
11100000, //8
10111010,
11100000,
10111010,
11100000,
1111,
1122,
1111,
1122, //16
#GOGOSTART
30030303,
#GOGOEND
0,
#GOGOSTART
30030303,
#GOGOEND
0,
1111,
1122,
1111,
1122, //24
#GOGOSTART
40040404,
0404
#GOGOEND
0000,
#GOGOSTART
40040404,
#GOGOEND
0,
2,
2,
1,
0, //32
1,
12,
2,
0,
42,
12,
12,
12, //40
#SCROLL 1.33
33,
33,
600000000000000000000000000000000000000000000008,
0, //44
#SCROLL 1
#GOGOSTART
10101110,
10110220,
10030403,
01120000,
10101110,
10110220,
3233,
3233, //52
#GOGOEND
10
#GOGOSTART
101110,
10220220,
20030304,
000000
#GOGOEND
600000000000000000000000000000000008000000,
#GOGOSTART
30120202,
10120202,
101000101000,
7008, //60
#GOGOEND
2221,
2220,
2221,
2220,
20111010,
11102020,
10111010,
11102000, //68
#MEASURE 3/4
#SCROLL 0.5
1,
#BARLINEOFF
0,
#BARLINEON
102,
#BARLINEOFF
2,
#BARLINEON
1,
#BARLINEOFF
0,
#BARLINEON
102,
#BARLINEOFF
2,
#BARLINEON
102,
#BARLINEOFF
2,
#BARLINEON
102,
#BARLINEOFF
2, //80
#BARLINEON
#SCROLL 0.6
3,
1,
#SCROLL 0.7
1,
1,
#SCROLL 0.8
3,
1,
#SCROLL 0.9
105,
0,
0,
000000000000000000000000000000000000000000000008, //90
#SCROLL 1
0,
0,
0,
4,
#MEASURE 4/4
2,
22,
#GOGOSTART
3
#GOGOEND
0030030,
03001000, //98
#GOGOSTART
10101110,
1120,
30030030,
03002000,
#GOGOEND
10
#GOGOSTART
101110,
10110220,
20030304,
000000
#GOGOEND
600000000000000000000000000000000008000000, //106
#GOGOSTART
30110101,
30110101,
40220202,
40220202,
5,
000000000000000000000000000000000000000000000008,
#GOGOEND
0, //113
300330,
300330,
400440,
400440,
300330,
300330,
330330,
600000000000000000000000000000000000000000000008,
0,
0,
0, //124
#END

COURSE:Easy
LEVEL:5
BALLOON:4
SCOREINIT:4970
SCOREDIFF:0
#START
2002,
02,
2002,
02,
10010010,
01000000,
10010010,
01000000, //8
10010010,
01000000,
10010010,
01000000,
1110,
1111,
1110,
1111, //16
#GOGOSTART
30030303,
#GOGOEND
0,
#GOGOSTART
30030303,
#GOGOEND
0,
1110,
1111,
1110,
1111, //24
#GOGOSTART
40040404,
0404
#GOGOEND
0000,
#GOGOSTART
40040404,
#GOGOEND
0,
2,
2,
1,
0, //32
1,
1,
2,
0,
4,
12,
1,
12,
#SCROLL 1.33
3,
3,
600000000000000000000000000000000000000000000008,
0, //44
#GOGOSTART
#SCROLL 1
1110,
10110000,
10030303,
00020000,
1110,
10110000,
3033,
3033, //52
#GOGOEND
10
#GOGOSTART
101000,
10110000,
20030303,
000000
#GOGOEND
600000000000000000000008000000000000000000,
#GOGOSTART
30020000,
10020000,
11,
7008, //60
#GOGOEND
2002,
02,
2002,
02,
1111,
1110,
1111,
1110, //68
#MEASURE 3/4
#SCROLL 0.5
1,
#BARLINEOFF
0,
#BARLINEON
1,
#BARLINEOFF
0,
#BARLINEON
1,
#BARLINEOFF
0,
#BARLINEON
1,
#BARLINEOFF
0,
#BARLINEON
1,
#BARLINEOFF
1,
#BARLINEON
1,
#BARLINEOFF
1, //80
#BARLINEON
#SCROLL 0.6
3,
0,
#SCROLL 0.7
1,
0,
#SCROLL 0.8
3,
1,
#SCROLL 0.9
105,
0,
0,
000000000000000000000000000000000000000000000008, //90
#SCROLL 1
0,
0,
0,
4,
#MEASURE 4/4
2,
0,
#GOGOSTART
3
#GOGOEND
0030030,
03000000, //98
#GOGOSTART
1110,
2220,
30030030,
03002000,
#GOGOEND
10
#GOGOSTART
101000,
10110000,
20030303,
000000
#GOGOEND
600000000000000000000008000000000000000000, //106
#GOGOSTART
30020000,
30020000,
40020000,
40020000,
5,
000000000000000000000000000000000000000000000008,
#GOGOEND
0, //113
33,
3,
44,
4,
33,
3,
33,
600000000000000000000000000000000000000000000008,
0,
0,
0, //124
#END
