//TJADB Project
TITLE:Show -Cover Audio-
TITLEJA:唱
SUBTITLE:--Universal Studios Japan Zombie de Dance New Theme Song
SUBTITLEJA:カバー音源 ユニバーサル・スタジオ・ジャパン「ゾンビ・デ・ダンス」新テーマソング
BPM:132
WAVE:Show (Cover).ogg
OFFSET:-1.935
DEMOSTART:67.379 //Shinuchi:
10150/5950/3000/2070

COURSE:Oni
LEVEL:8
BALLOON:16,6
SCOREINIT:690,2160
SCOREDIFF:183
#START
10201202,
1010201020000022,
1000000021112120,
2000002110201000, //4
1011201010221120,
1111201122202222,
500000000000000000000000000000000000000008000000,
7008, //8
1122102211211000,
1122102211121000,
2111201121112010,
2012012010112000, //12
1021011010212010,
1011022020112110,
1021011010212010,
1021021210104000, //16
1021212120112010,
2012012110102220,
2202101011012020,
3002202222112000, //20
1010201010212011,
1010201010211020,
1010211021102110,
2012012030304000, //24
1002102010012010,
1002102010012010,
2002102010012011,
22221040, //28
2222,
2244,
2222,
2000200040004021, //32
1020102010221020,
1012102210221220,
1020102210221220,
4022, //36
#GOGOSTART
1001201010221220,
1111211020122020,
1021202210212220,
500000000000000000000000000008000000400000000000, //40
1001201010221220,
1111211020122020,
1021202210212220,
#GOGOEND
0044, //44
#GOGOSTART
1020102210211020,
1022112110112020,
1020102210211020,
1022102010112222, //48
1020102210211020,
1022112110112110,
1121202212212020,
1111222070000080, //52
#GOGOEND
0,
0,
0, //55
#END

COURSE:Hard
LEVEL:6
BALLOON:13,5,5
SCOREINIT:760,3200
SCOREDIFF:215
#START
10201101,
1120,
1000000011102020,
20021210, //4
10201202,
1010201022202000,
9009,
8, //8
1011101010101000,
1022202020202000,
1011101010101000,
2002002010102000, //12
1002001010202000,
1001002020101000,
1002001010202000,
1001001010004000, //16
1020222020102000,
2002002010002000,
2202000011010000,
300000000200000000200000700000000000080000000000, //20
1010201010010000,
1010201010020000,
11212121,
2002002030304000, //24
1001102010011000,
1002202010011000,
2002202020022000,
22221040, //28
2222,
2244,
2222,
2244, //32
10101212,
10101212,
1020102010222020,
4022, //36
#GOGOSTART
1000100010111010,
1010201020222020,
1011101020222020,
500000000000000000000000000008000000400000000000, //40
1000100010111010,
1010201020222020,
1011101020222020,
#GOGOEND
0044, //44
#GOGOSTART
1000102010111000,
1000101010222020,
1000102010111000,
1000101010222000, //48
1000102010111000,
1000101010222020,
1011101020222020,
11107008, //52
#GOGOEND
0,
0,
0, //55
#END

COURSE:Normal
LEVEL:4
BALLOON:10,6,8,4
SCOREINIT:1050,6550
SCOREDIFF:390
#START
11,
1120,
1,
1022, //4
11,
1122,
9009,
8, //8
1110,
2220,
10101110,
500000000000000000000000000008000000000000000000, //12
10011000,
10011000,
20022000,
500000000000000000000008000000000000000000000000, //16
1110,
700000000000080000000000,
21,
3, //20
1110,
1110,
1122,
2034, //24
1110,
1110,
1122,
7008, //28
22,
2044,
22,
2044, //32
1111,
10101110,
1122,
4, //36
#GOGOSTART
10101101,
1120,
11102220,
500000000000000000000000000008000000400000000000, //40
10101101,
1120,
11102220,
#GOGOEND
0044, //44
#GOGOSTART
10101110,
1120,
10101110,
1110, //48
10101110,
1120,
11102220,
11107008, //52
#GOGOEND
0,
0,
0, //55
#END

COURSE:Easy
LEVEL:2
BALLOON:8,4,6,7,3
SCOREINIT:1050,11060
SCOREDIFF:663
#START
11,
1,
1,
2, //4
11,
11,
9009,
8, //8
1110,
2220,
1110,
500000000000000000000000000008000000000000000000, //12
11,
1,
11,
500000000000000000000008000000000000000000000000, //16
1110,
700000000000080000000000,
22,
3, //20
11,
11,
1110,
23, //24
1110,
1110,
1110,
7008, //28
0,
04,
0,
04, //32
11,
1,
11,
3, //36
#GOGOSTART
1110,
1110,
1111,
500000000000000000000000000008000000000000000000, //40
1110,
1110,
9009,
#GOGOEND
8, //44
#GOGOSTART
1110,
12,
1110,
11, //48
1110,
12,
1110,
10007008, //52
#GOGOEND
0,
0,
0, //55
#END
