// TJADB Project
TITLE:Kyu-kurarin
TITLEJA:きゅうくらりん
SUBTITLE:--Iyowa feat. KAFU
SUBTITLEJA:いよわ feat. 可不
BPM:220
WAVE:Kyu-kurarin.ogg
OFFSET:-0.774
DEMOSTART:37.864 //shinuchi:
6690/4250/2230/1540/1120

COURSE:Edit
LEVEL:10
BALLOON:3,12
SCOREINIT:420,1160
SCOREDIFF:98
#START
1111111010101011,
1011111110001000, //2
10221022,
1010202010222022,
110220110220110220110220,
101000202000101000700000000000000008000000000000,
1110201111102011,
1110201010222020,
2220102222201022,
1020102011222222, //10
1020102210201022,
1110102000222022,
1020102210201122,
2022101000112212,
1010201110102011,
1010201010222020,
1010201110102011,
1021212121112212, //18
1020102210201022,
1110102000222022,
1010221010221122,
2022101000112212,
1010201110102011,
1010201010222020,
1010201110102011,
1020102022202000, //26
1000221010122010,
10202021,
200000100000100200100000200000002000100020100000,
1000201220202020,
2210202020101000,
2000202210202020,
1110202010202020,
1002002020020020, //34
#GOGOSTART
30001111,
3333,
1000201011102010,
1000222020102010,
1011201011101020,
1020102010222020,
1110202011112020,
3000300012221222, //42
1010201110102020,
1202101020112010,
1010201110102020,
1202101020221222,
100000100300000111200100,
1111103000102000,
10011011,
100000000000100000000000100100100002000000000000, //50
#GOGOEND
100000001000000200020000000000202000000000010000,
000000101000000000100000000000200000000000100100,
100000000002000000000001000010000000000000100000,
2010001110002000,
100001000000000000200000000000200000100000200000,
000220200000200000200220,
02020222,
1121112121111110, //58
7,
800000000000200000200002,
000000000000000000000020000000000002000000000000,
200000000000000000000000200000000000000000000002,
00002002,
#BPMCHANGE 225.56
#SCROLL 0.97
000000020000000000020000000000000000000000000001,
000000000000000000000000020000000000000000000000,
#BPMCHANGE 209.67
#SCROLL 1.04
2211, //66
#BPMCHANGE 220
#SCROLL 1
12211221,
100000100001000002000001,
00221122,
100000000000100000000100000000000000020000000001,
00010111,
100000200000200000100000000000000000200000000001,
00011011,
1, //74
#GOGOSTART
30001111,
3333,
1000201011102010,
1000222020102010,
1011201011101020,
1020102010222020,
1110202011112020,
3000300012221222, //82
1010201110102020,
1202101020112010,
1010201110102020,
1202101020221222,
100000100300000111200100,
1111103000102000,
1000101011111111, //89
1222102012122010,
32323232,
1222102210201010,
1222102010221020,
1020102211201022,
1022102210222020,
1111202011112020,
3000300012221222, //97
1020201212202020,
1202101020112020,
1020201212202020,
1202101020221222,
100000100300000111200100,
1122204000102000,
10011011,
#GOGOEND
1,
0, //106
#END

COURSE:Oni
LEVEL:8
BALLOON:7,25
SCOREINIT:490,1650
SCOREDIFF:123
#START
11111111,
33333010, //2
10221022,
11221122,
12121212,
70000800,
1000201110002011,
11211020,
2000102220001022,
22122000, //10
10101210,
1110102000202000,
1000100010201022,
1000101000102011,
1000201110002011,
11211022,
1000201110002011,
1020102010222020, //18
10101210,
1110102000202000,
11012110,
1000101000102011,
1000201110002011,
11211022,
1000201110002011,
1020102022202000, //26
500000000000000000000000000000000008000000100000,
500000000000000000000008000000000000000000100000,
2010222020002000,
10212020,
2210202020101000,
2000202210202020,
1110202010202020,
0, //34
#GOGOSTART
30001111,
3333,
1000200011102010,
1000222020002000,
1000201011101020,
0020002010222020,
11211121,
3000300030111000, //42
1010201110102020,
1000201000222020,
1000201110102020,
1000201000222000,
10130121,
1110103000102000,
10011011,
100000000000100000000000100100100002000000000000, //50
#GOGOEND
100000001000000200020000000000200000000000010000,
0010001000200011,
100000000002000000000001000010000000000000100000,
21011000,
100001000000000000200000000000200000000000200000,
02202022,
02020222,
02022000, //58
7,
0,
8,
000000000000000000000000000000000000000000000002,
000000000000000000000000200000000000000000200000,
#BPMCHANGE 225.56
#SCROLL 0.97
000000020000000000020000000000000000000000000001,
000000000000000000000000020000000000000000000000,
#BPMCHANGE 209.67
#SCROLL 1.04
2211, //66
#BPMCHANGE 220
#SCROLL 1
11,
100000100001000000000001,
01,
100000000000100000000100000000000000000000000001,
00010000,
100000000000000000100000000000000000200000000001,
00001011,
1, //74
#GOGOSTART
30001111,
3333,
1000200011102010,
1000222020002000,
1000201011101020,
0020002010222020,
11211121,
3000300030111000, //82
1010201110102020,
1000201000222020,
1000201110102020,
1000201000222000,
10130121,
1110103000102000,
10011010, //89
3020102011201020,
3333,
1020102210201020,
1022102010221020,
1020102011201020,
0020002010222020,
1110202011102020,
3000300011101110, //97
1020202210202020,
1000201000222020,
1020202210202020,
1000201000222020,
10130121,
1120204000102000,
10011011,
#GOGOEND
1,
0, //106
#END

COURSE:Hard
LEVEL:5
BALLOON:5,20
SCOREINIT:490,2460
SCOREDIFF:133
#START
11111111,
33333000, //2
10201011,
10201110,
12121212,
70000800,
10011001,
11111000,
20022002,
22222000, //10
1111,
10020000,
1111,
00110100,
10011001,
11111000,
20022002,
22222000, //18
1111,
10020000,
11012110,
00110100,
10011001,
11111000,
20022002,
22222020, //26
5,
000000000000000000000008000000000000000000000000,
10222020,
10010000,
10222020,
10220200,
10201222,
0, //34
#GOGOSTART
30001111,
3333,
10201111,
20222020,
10211112,
02020220,
10111110,
3330, //42
10111020,
10110020,
10111020,
10110020,
10030111,
11030020,
10011011,
100000000000000000000000000000000002000000000000, //50
#GOGOEND
5,
000000000000000000000008000000000000000000000000,
100000000002000000000001000010000000000000100000,
21011000,
5,
000000000000000000000008000000000000000000100000,
02020222,
02022000, //58
7,
0,
8,
000000000000000000000000000000000000000000000002,
000000000000000000000000200000000000000000200000,
#BPMCHANGE 225.56
#SCROLL 0.97
000000020000000000020000000000000000000000000000,
0,
#BPMCHANGE 209.67
#SCROLL 1.04
0, //66
#BPMCHANGE 220
#SCROLL 1
1,
100000000001000000000001,
0,
100000000000000000000100000000000000000000000001,
0,
100000000000000000100000000000000000000000000001,
0011,
1, //74
#GOGOSTART
30001111,
3333,
10201111,
20222020,
10211112,
02020220,
10111110,
3330, //82
10111020,
10110020,
10111020,
10110020,
10030111,
11030020,
10011010, //89
30011111,
3333,
10221111,
20222220,
12121112,
02021112,
12121111,
3330, //97
12211110,
20220020,
12211110,
20110020,
10130121,
12240010,
10011011,
#GOGOEND
1,
0, //106
#END

COURSE:Normal
LEVEL:4
BALLOON:15
SCOREINIT:700,4870
SCOREDIFF:223
#START
5,
000000000000000000000008000000000000000000000000, //2
12,
12,
11,
1,
11,
1110,
22,
2220, //10
11,
10010000,
11,
2,
11,
1110,
22,
2220, //18
11,
10010000,
11,
2,
11,
1110,
22,
2220, //26
5,
000000000000000000000008000000000000000000000000,
1,
20020000,
1,
2,
11,
0, //34
#GOGOSTART
31,
3333,
11,
1111,
10002002,
02020000,
1111,
33, //42
1111,
1,
1111,
1,
10030000,
10030000,
1011,
1, //50
#GOGOEND
5,
000000000000000000000008000000000000000000000000,
11,
11,
5,
000000000000000000000008000000000000000000000000,
22,
22, //58
7,
0,
8,
0,
1,
#BPMCHANGE 225.56
#SCROLL 0.97
0,
0,
#BPMCHANGE 209.67
#SCROLL 1.04
0, //66
#BPMCHANGE 220
#SCROLL 1
1,
2,
1,
200000000000000000000000000000000000000000000001,
0,
100000000000000000000000000000000000000000000001,
0011,
1, //74
#GOGOSTART
31,
3333,
11,
1111,
10002002,
02020000,
1111,
33, //82
1111,
1,
1111,
1,
10030000,
10030000,
1011, //89
3011,
3333,
1011,
1111,
20002002,
02020000,
1111,
33, //97
1111,
20020000,
1111,
20020000,
10030000,
10030010,
1011,
#GOGOEND
1,
0, //106
#END

COURSE:Easy
LEVEL:3
BALLOON:13
SCOREINIT:680,7960
SCOREDIFF:303
#START
5,
000000000000000000000008000000000000000000000000, //2
1,
1,
11,
1,
11,
1,
22,
2, //10
1,
1,
1,
2,
11,
1,
22,
2, //18
1,
1,
1,
2,
11,
1,
22,
2, //26
5,
000000000000000000000008000000000000000000000000,
1,
2,
1,
2,
1,
0, //34
#GOGOSTART
3,
33,
1,
11,
1,
2,
11,
33, //42
11,
1,
11,
1,
3,
3,
11,
1, //50
#GOGOEND
5,
000000000000000000000008000000000000000000000000,
11,
1,
5,
000000000000000000000008000000000000000000000000,
22,
2, //58
7,
0,
8,
0,
1,
#BPMCHANGE 225.56
#SCROLL 0.97
0,
0,
#BPMCHANGE 209.67
#SCROLL 1.04
0, //66
#BPMCHANGE 220
#SCROLL 1
1,
0,
1,
000000000000000000000000000000000000000000000001,
0,
100000000000000000000000000000000000000000000001,
01,
1, //74
#GOGOSTART
3,
33,
1,
11,
1,
2,
11,
33, //82
11,
1,
11,
1,
3,
3,
11, //89
31,
3330,
11,
1110,
22,
2,
11,
33, //97
1110,
2,
1110,
2,
3,
3,
11,
#GOGOEND
1,
0, //106
#END
