//TJADB Project
TITLE:Seiza Wardo
TITLEJA:星座わーど
SUBTITLE:--Ogami Masako & Yasutoku Matsutani feat. Erika Kaiho
SUBTITLEJA:おおがみまさこ & 松谷康德 feat. 海保えりか
BPM:160
WAVE:Seiza Wardo.ogg
OFFSET:-0.148
DEMOSTART:33.320

COURSE:Oni
LEVEL:7
BALLOON:18
SCOREINIT:1930
SCOREDIFF:0
#START
#MEASURE 1/4
#BARLINEOFF
12,
#MEASURE 4/4
#BARLINEON
02112101,
0011100000101020,
1022201010221010,
0020102220101020,
1022201010221010,
12022112, //7
1022201010221010,
1022202000101050,
000000000000000000000000000008000000000000100000,
0010001011112000,
1022201010221010,
0020102220101020,
1022201010221010,
12022122, //15
0020201020222010,
0020201010222050,
000000000000000000000000000008000000000000200000,
11112222,
0020201020222010,
0020201010222070,
00000008,
00003303, //23
02221121,
02221121,
01221202,
1111222211111030,
02221121,
02221121,
01221202,
1111222211111030, //31
01102102,
0011100000000000,
44340404,
3000001010111010,
10122022,
1020101020222020,
10122022,
1020101010112020, //39
12212212,
2010202010222020,
30340404,
04030300,
10012022,
1122,
10012022,
10102120, //47
1000111000100010,
01201120,
500000000000000000000000000000000008000000300000,
0000300011112030,
0022202010202030,
0022202010202030,
00202202,
03030303,
0022202010202030,
03221223,
000000200000200112200000,
400000000000000000600000000000000000000008000000,
11222000200010
#GOGOSTART
30, //60
0022202010112010,
0022202010112050,
000000000000000000000008000000200000000000200000,
1111222211221030,
0022202010112010,
0022202010112050,
000000000000000000000008000000200000000000200000,
1111222211221030, //68
0022101020101020,
0022101010200020,
000011200000200100200200,
0010202011202010,
01102102,
0011100000000000,
42120101,
42120101,
44340303,
4220,
#GOGOEND
0, //79
#END

COURSE:Hard
LEVEL:5
BALLOON:14
SCOREINIT:2940
SCOREDIFF:0
#START
#MEASURE 1/4
#BARLINEOFF
12,
#MEASURE 4/4
#BARLINEON
01111101,
00100112,
10211011,
02022012,
10211011,
02022112, //7
10211011,
10220115,
000000000000000000000000000008000000000000100000,
01011020,
10211011,
02022012,
10211011,
12022001, //15
02220201,
02220205,
000000000000000000000000000000000000000000000008,
00000111,
02220201,
02220207,
00000008,
00003301, //23
02221021,
02221025,
000000000000000000000008000000100000000000100000,
02020201,
02221021,
02221025,
000000000000000000000008000000100000000000100000,
02020201, //31
01102102,
0100,
44340404,
30011101,
1122,
10111120,
10111010,
10111110, //39
11011011,
01101120,
30340404,
04030300,
1022,
1222,
10002022,
0222, //47
10110101,
02201010,
500000000000000000000000000000000008000000300000,
00300003,
02222023,
02222023,
00000202,
03030303,
02222023,
03002223,
0224,
400000000000000000600000000000000000000008000000,
0000201
#GOGOSTART
3, //60
02221121,
02221125,
000000000000000000000008000000100000000000100000,
02020203,
02221121,
02221125,
000000000000000000000008000000100000000000100000,
02020203, //68
02102102,
00111202,
10202122,
01220221,
01102102,
0300,
22120101,
22120101,
44340303,
4220,
#GOGOEND
0, //79
#END

COURSE:Normal
LEVEL:5
BALLOON:10,8,9
SCOREINIT:4610
SCOREDIFF:0
#START
#MEASURE 1/4
#BARLINEOFF
0,
#MEASURE 4/4
#BARLINEON
0,
0100,
10011001,
01000000,
10011011,
0011, //7
10011001,
10110105,
000000000000000000000000000000000000000008000000,
0002,
10011001,
01000000,
10011011,
00000002, //15
00220002,
00220005,
000000000000000000000000000000000000000000000008,
00000002,
00220202,
00220207,
00000008,
00003001, //23
01101011,
01101015,
000000000000000000000008000000000000000000100000,
02020201,
01101011,
01101015,
000000000000000000000008000000000000000000100000,
02020201, //31
01101102,
0100,
22020200,
3,
1110,
10111010,
1110,
10111010, //39
11011011,
01101010,
70000008,
0,
22,
0222,
20002002,
0, //47
10110101,
0011,
500000000000000000000000000000000008000000000000,
00300003,
00202003,
00202003,
00000202,
03030303,
00202003,
03002003,
0004,
400000000000000000600000000000000000000008000000,
0000000
#GOGOSTART
3, //60
02201011,
02201015,
000000000000000008000000000000100000000000100000,
02020203,
02201011,
02201015,
000000000000000008000000000000100000000000100000,
02020203, //68
01101102,
00111107,
00000008,
00000001,
01101102,
0300,
11010101,
11010101,
33030303,
4220,
#GOGOEND
0, //79
#END

COURSE:Easy
LEVEL:4
BALLOON:7,7,8
SCOREINIT:9020
SCOREDIFF:0
#START
#MEASURE 1/4
#BARLINEOFF
0,
#MEASURE 4/4
#BARLINEON
0,
0100,
10001001,
0,
10001001,
0, //7
11,
10000005,
000000000000000000000000000000000000000008000000,
0,
10001001,
0,
10001001,
00000002, //15
00000002,
00000005,
000000000000000000000000000000000000000000000008,
00000002,
00000002,
00020007,
00000008,
00003001, //23
00001001,
00001005,
000000000000000000000008000000000000000000200000,
00000001,
00001001,
00001005,
000000000000000000000008000000000000000000200000,
00000001, //31
00001001,
0,
2,
3,
1,
1011,
1,
1011, //39
11,
1011,
70000008,
0,
22,
02,
20002002,
0, //47
10010101,
01,
500000000000000000000000000000000008000000000000,
00300003,
00000003,
00000003,
0,
03030303,
00000003,
03000003,
0,
400000000000000000600000000000000000000008000000,
0000000
#GOGOSTART
3, //60
00101001,
00101005,
000000000000000000000008000000000000000000200000,
00000003,
00101001,
00101005,
000000000000000000000008000000000000000000200000,
00000003, //68
00101002,
00101007,
00000008,
00000001,
00101002,
0300,
10010100,
10010100,
30030300,
4220,
#GOGOEND
0, //79
#END
