//TJADB Project
TITLE:Just Dance
TITLEJA:Just Dance
TITLEZH:现在不跳舞要干嘛
SUBTITLE:--
SUBTITLEJA:
SUBTITLEZH:
BPM:118
WAVE:Just Dance.ogg
OFFSET:-1.825
DEMOSTART:50.638

COURSE:Oni
LEVEL:7
BALLOON:8,10
SCOREINIT:2950
SCOREDIFF:0
#START
1010202010220021,
0010212200202022,
1010220100220020,
0020201022222210,
1010202010220021,
0010202200202010,
1020220100220020,
0020201021111020, //8
100000100200101100200202,
100200102202100200100202,
100000100200101100100202,
100000200000100020200000500000000000000008000000,
100000100200101100200202,
100200102202100200100202,
100000100200102201100200,
100200102202100200100202, //16
100000000100200000200020100010100000200000200000,
11221212,
100002102202100100100202,
100000200000100020200000500000000000000008000000,
100000000100200000200020100010100000200000200000,
11240407,
000000800202100200200100,
1111001011104000, //24
#GOGOSTART
1011102010210122,
11111040,
1011102010210120,
300000000000300000000000600000000000000008000000,
1011102010210122,
1012101011104000,
1000102010112021,
0010101040222222, //32
1011102010210122,
11111040,
1022201110210120,
300000000000300000000000600000000000000008000000,
1022201110210120,
1012101011104000,
1000102010112021,
01117000, //40
#GOGOEND
8,
0,
0, //43
#END

COURSE:Hard
LEVEL:5
BALLOON:7
SCOREINIT:4350
SCOREDIFF:0
#START
1000200010220020,
0000102200202020,
1000220100220020,
0020201020020020,
1000200010220020,
0000102200202020,
1000220100220020,
0020201020020020, //8
10121121,
00121020,
10121112,
100000200000000000000000500000000000000008000000,
10121121,
00121020,
1000102010010010,
1211, //16
1001001010102020,
11210202,
10102112,
100000200000000000000000500000000000000008000000,
1001001010102020,
11140404,
00201221,
600000000000000000000008000000000000400000000000, //24
#GOGOSTART
1020201010110020,
11111040,
1020201010110020,
300000000000300000000000600000000000000008000000,
1020201010110020,
1011101010004000,
10121122,
01114040, //32
1020201010110020,
11111040,
1000201010110020,
300000000000300000000000600000000000000008000000,
1000201010110020,
1011101010004000,
10121122,
01117000, //40
#GOGOEND
8,
0,
0, //43
#END

COURSE:Normal
LEVEL:4
BALLOON:5
SCOREINIT:7190
SCOREDIFF:0
#START
1012,
0212,
1212,
01102000,
1012,
0212,
1212,
01102000, //8
10201011,
00010000,
10201011,
01002000,
10201011,
00010000,
1000200010010010,
12, //16
1001000020002000,
11110000,
1022,
12,
1001000020002000,
11140404,
0012,
600000000000000000000000000000000008000000000000, //24
#GOGOSTART
1110,
01111040,
1110,
3330,
1110,
01111040,
10101011,
01114040, //32
1110,
01111040,
1110,
3330,
1110,
01111040,
10101011,
01117000, //40
#GOGOEND
8,
0,
0, //43
#END

COURSE:Easy
LEVEL:2
BALLOON:4
SCOREINIT:12980
SCOREDIFF:0
#START
11,
01,
11,
02,
11,
01,
11,
02, //8
10000001,
00010000,
10000001,
02,
10000001,
00010000,
1,
2, //16
12,
1100,
1022,
2,
11,
10040404,
0001,
600000000000000000000000000008000000000000000000, //24
#GOGOSTART
1110,
12,
1110,
3330,
1110,
12,
1022,
03, //32
1110,
12,
1110,
3330,
1110,
12,
1022,
07, //40
#GOGOEND
8,
0,
0, //43
#END
