//TJADB Project
TITLE:Saraeru
TITLEJA:サラえる
SUBTITLE:--Yomoda
SUBTITLEJA:四方田
BPM:270
WAVE:Saraeru.ogg
OFFSET:-3.660
DEMOSTART:12.104

COURSE:Oni
LEVEL:9
BALLOON:
SCOREINIT:1670
SCOREDIFF:0
#START
#MEASURE 7/4
#SCROLL 0.5
3,
#MEASURE 6/4
220200010000,
#MEASURE 7/4
3,
#MEASURE 6/4
100100010002, //4
2,
100020100010001000222020,
#MEASURE 7/4
10102112021000,
#MEASURE 6/4
100121120221, //8
101021120221,
001021002122,
#MEASURE 7/4
10102112021000,
#MEASURE 6/4
100121120221,
#MEASURE 7/4
12020202022120,
#MEASURE 6/4
100020100020201022220000, //14
#MEASURE 5/4
2002002010,
2002002010,
2022022010,
2002002111, //18
2002002010,
2002002010,
2110202011,
20200010001100102020, //22
#MEASURE 7/4
10102112021000,
#MEASURE 6/4
100121120221,
#MEASURE 7/4
10102112022100,
#MEASURE 6/4
100121120221, //26
#MEASURE 7/4
10102112021000,
#MEASURE 6/4
100121120221,
#MEASURE 7/4
10102112022211,
#MEASURE 6/4
220202020111, //30
#MEASURE 5/4
2222002000,
1111001000,
2222002000,
#MEASURE 6/4
220202020120, //34
#MEASURE 5/4
20202020002220000000,
10101010001110000000,
20202020002220000000,
2201022121, //38
1221021020,
1221022020,
1221021022,
1221012210, //42
1221022112,
2021022110,
1021021120,
200000000000000000200000000000200000500000000000000000000008,
#MEASURE 2/4
0, //47
#MEASURE 8/4
#SCROLL 0.6
202000
#SCROLL 0.7
101000
#SCROLL 0.8
101000
#SCROLL 0.9
101000
#SCROLL 1
1010
#SCROLL 1.1
2222,
#BARLINEOFF
#MEASURE 6/4
0, //49
#BARLINEON
#MEASURE 4/4
#SCROLL 1
#GOGOSTART
10010122,
11221000,
20202011,
0011101020000000, //53
10010122,
11221000,
20201120,
2000101020111000, //57
10010122,
11221000,
20202011,
0011101020000000, //61
10010122,
11221000,
20201120,
2000202020111000,
#MEASURE 2/4
12121212, //66
#MEASURE 3/4
0
#SCROLL 0.5
12,
#MEASURE 1/4
#SCROLL 1
0
#SCROLL 0.5
1,
#MEASURE 3/4
0
#SCROLL 0.5
22111,
#BARLINEOFF
#MEASURE 1/96
2,
#BARLINEON
#MEASURE 23/96
#SCROLL 1
0, //71
#MEASURE 4/4
20202011,
0011101022222222, //73
10010122,
11221000,
20202011,
0011101010102000, //77
10010122,
11221000,
20201120,
0011101020101111, //81
11211121,
11211121,
21212121,
11111111
#SCROLL 1.5
2000
#GOGOEND
0000, //85
#MEASURE 7/4
#SCROLL 0.5
10102112021000,
#MEASURE 6/4
100121120221,
101021120222,
211112112121, //89
#MEASURE 7/4
10102112021000,
#MEASURE 6/4
100121120221,
#MEASURE 7/4
12020202022111,
#MEASURE 6/4
222112211111,
#MEASURE 4/4
0, //94
#END

COURSE:Hard
LEVEL:8
BALLOON:
SCOREINIT:2850
SCOREDIFF:0
#START
#MEASURE 7/4
#SCROLL 0.5
3,
#MEASURE 6/4
200200020000,
#MEASURE 7/4
3,
#MEASURE 6/4
100100010000, //4
3,
200202010000,
#MEASURE 7/4
10102002000000,
#MEASURE 6/4
101020020000, //8
101020020100,
101020020000,
#MEASURE 7/4
10102002000000,
#MEASURE 6/4
101020020000,
#MEASURE 7/4
12020202000010,
#MEASURE 6/4
101020020000, //14
#MEASURE 5/4
2002002000,
2002002000,
2022022000,
2002022000, //18
2002002000,
2002002020,
0220202020,
1101011000, //22
#MEASURE 7/4
10102002000000,
#MEASURE 6/4
101020020000,
#MEASURE 7/4
10102002000000,
#MEASURE 6/4
101020020010, //26
#MEASURE 7/4
10102002000000,
#MEASURE 6/4
101020020000,
#MEASURE 7/4
10102002022200,
#MEASURE 6/4
220202020000, //30
#MEASURE 5/4
2002002000,
1001001000,
2002002000,
#MEASURE 6/4
220202020000, //34
#MEASURE 5/4
2002022000,
1001011000,
2002022000,
2202022000, //38
1001011000,
1001022000,
1001011000,
2002011000, //42
1001022000,
1001022000,
1001022000,
200000000000000000200000000000200000500000000000000000000008,
#MEASURE 2/4
0, //47
#MEASURE 8/4
#SCROLL 0.6
220
#SCROLL 0.7
110
#SCROLL 0.8
110
#SCROLL 0.9
110
#SCROLL 1
1111,
#BARLINEOFF
#MEASURE 6/4
0, //49
#BARLINEON
#MEASURE 4/4
#SCROLL 0.8
#GOGOSTART
10010110,
1210,
2222,
01101000, //53
10010110,
1210,
2222,
20111000, //57
10010110,
1210,
2222,
01101000, //61
10010110,
1210,
2222,
20222000,
#MEASURE 2/4
500000000000000000000008, //66
#MEASURE 3/4
0
#SCROLL 0.5
22,
#MEASURE 1/4
#SCROLL 0.8
0
#SCROLL 0.5
2,
#MEASURE 3/4
#SCROLL 0.8
0,
#MEASURE 1/96
0,
#BARLINEOFF
#MEASURE 23/96
0, //71
#BARLINEON
#MEASURE 4/4
2222,
01102220, //73
10010110,
1210,
2222,
01101000, //77
10010110,
1210,
2222,
01101000, //81
11101110,
11101110,
11111111,
111120
#GOGOEND
00, //85
#MEASURE 7/4
#SCROLL 0.5
10102002000000,
#MEASURE 6/4
101020020000,
101020020100,
101020020000, //89
#MEASURE 7/4
10102002000000,
#MEASURE 6/4
101020020000,
#MEASURE 7/4
12020202000000,
#MEASURE 6/4
101020020111,
#MEASURE 4/4
0, //94
#END

COURSE:Normal
LEVEL:6
BALLOON:
SCOREINIT:5030
SCOREDIFF:0
#START
#MEASURE 7/4
#SCROLL 0.5
3,
#MEASURE 6/4
200000020000,
#MEASURE 7/4
1,
#MEASURE 6/4
100000010000, //4
1,
200000020000,
#MEASURE 7/4
1100000,
#MEASURE 6/4
110000, //8
110000,
222,
#MEASURE 7/4
1100000,
#MEASURE 6/4
110000,
#MEASURE 7/4
1100001,
#MEASURE 6/4
010100, //14
#MEASURE 5/4
2002000000,
2002000000,
2002000000,
1001000000, //18
2002000000,
2002000000,
2002000000,
2202000000, //22
#MEASURE 7/4
1100000,
#MEASURE 6/4
110000,
#MEASURE 7/4
1100000,
#MEASURE 6/4
220000, //26
#MEASURE 7/4
1100000,
#MEASURE 6/4
110000,
#MEASURE 7/4
1100000,
#MEASURE 6/4
200202020000, //30
#MEASURE 5/4
20020,
10010,
20020,
#MEASURE 6/4
4, //34
#MEASURE 5/4
20020,
10010,
20020,
2202000000, //38
10010,
10010,
10010,
2002002000, //42
10010,
10010,
10010,
200000000000000000200000000000000000500000000000000000000008,
#MEASURE 2/4
0, //47
#MEASURE 8/4
#SCROLL 0.6
100
#SCROLL 0.7
100
#SCROLL 0.8
100
#SCROLL 0.9
100
#SCROLL 1
1000,
#BARLINEOFF
#MEASURE 6/4
0, //49
#BARLINEON
#MEASURE 4/4
#SCROLL 0.7
#GOGOSTART
10010000,
10010000,
2222,
2, //53
10010000,
10010000,
2222,
21, //57
10010000,
10010000,
2222,
2, //61
10010000,
10010000,
2222,
21,
#MEASURE 2/4
500000000000000000000008, //66
#MEASURE 3/4
0,
#MEASURE 1/4
2,
#MEASURE 3/4
2,
#MEASURE 1/96
2,
#BARLINEOFF
#MEASURE 23/96
0, //71
#BARLINEON
#MEASURE 4/4
2222,
2, //73
10010000,
10010000,
2222,
21, //77
10010000,
10010000,
2222,
2, //81
10010000,
10010000,
1111,
111
#GOGOEND
0, //85
#MEASURE 7/4
#SCROLL 0.5
1100000,
#MEASURE 6/4
110000,
110000,
222, //89
#MEASURE 7/4
1100000,
#MEASURE 6/4
110000,
#MEASURE 7/4
22020202000010,
#MEASURE 6/4
001000100011,
#MEASURE 4/4
0, //94
#END

COURSE:Easy
LEVEL:4
BALLOON:10
SCOREINIT:7800
SCOREDIFF:0
#START
#MEASURE 7/4
#SCROLL 0.5
3,
#MEASURE 6/4
2,
#MEASURE 7/4
1,
#MEASURE 6/4
1, //4
1,
2,
#MEASURE 7/4
1100000,
#MEASURE 6/4
1, //8
110000,
2,
#MEASURE 7/4
1100000,
#MEASURE 6/4
1,
#MEASURE 7/4
10100000000500,
#MEASURE 6/4
000000000000000000000000000000000008000000000000000000000000000000000000, //14
#MEASURE 5/4
2002000000,
2002000000,
2002000000,
3, //18
2002000000,
2002000000,
2002000000,
3, //22
#MEASURE 7/4
1100000,
#MEASURE 6/4
1,
#MEASURE 7/4
1100000,
#MEASURE 6/4
2, //26
#MEASURE 7/4
1100000,
#MEASURE 6/4
1,
#MEASURE 7/4
1100000,
#MEASURE 6/4
220000, //30
#MEASURE 5/4
20020,
2,
20020,
#MEASURE 6/4
2, //34
#MEASURE 5/4
10010,
1,
10010,
1, //38
20020,
2,
20020,
2, //42
10010,
1,
20020,
2,
#MEASURE 2/4
0, //47
#MEASURE 8/4
#SCROLL 0.6
7,
#BARLINEOFF
#MEASURE 6/4
8, //49
#BARLINEON
#MEASURE 4/4
#GOGOSTART
10010000,
1,
22,
2, //53
10010000,
1,
22,
2, //57
10010000,
1,
22,
2, //61
10010000,
1,
22,
2,
#MEASURE 2/4
3, //66
#MEASURE 3/4
0,
#MEASURE 1/4
2,
#MEASURE 3/4
2,
#MEASURE 1/96
0,
#BARLINEOFF
#MEASURE 23/96
0, //71
#BARLINEON
#MEASURE 4/4
22,
2, //73
10010000,
1,
22,
2, //77
10010000,
1,
22,
2, //81
10010000,
1,
33,
300
#GOGOEND
0, //85
#MEASURE 7/4
#SCROLL 0.5
1100000,
#MEASURE 6/4
1,
110000,
220000, //89
#MEASURE 7/4
1100000,
#MEASURE 6/4
1,
#MEASURE 7/4
10100000000050,
#MEASURE 6/4
000000000000000000000000000000000000000000000000000000000008000000000000,
#MEASURE 4/4
0, //94
#END
