//TJADB Project
TITLE:AMPTAKxCOLORS
TITLEJA:AMPTAKxCOLORS
SUBTITLE:--AMPTAKxCOLORS
SUBTITLEJA:AMPTAKxCOLORS
BPM:125
WAVE:AMPTAKxCOLORS.ogg
OFFSET:-1.088
DEMOSTART:47.099

COURSE:Oni
LEVEL:6
BALLOON:16,25
SCOREINIT:3660
SCOREDIFF:0
#START
1000001110010010,
10011122,
1000001110010010,
20011122,
1000201110012010,
10211122,
1000201110012010,
20211122, //8
11201202,
1010101200000020,
1010101200000020,
1010201110102020,
11201202,
1010101200000020,
1010101200000020,
70000008, //16
1010200010112010,
1010200010112010,
1010200010222010,
1010200010222010,
1010200010112010,
1010200010112010,
1020220110022010,
3334, //24
#GOGOSTART
3000201120102020,
0011201000202010,
1010001120102020,
0011201020002010,
6,
000000000000000008000000000000000000200000100000,
7,
00082020, //32
3000201120102020,
0011201000202010,
1010001120102020,
0011201020002010,
6,
000000000000000008000000000000000000200000000000,
1000201120102020,
0011201020002010, //40
1000201110012010,
10211122,
1000201110012010,
10214433,
#GOGOEND
0,
0, //46
#END

COURSE:Hard
LEVEL:4
BALLOON:12,20
SCOREINIT:6750
SCOREDIFF:0
#START
1000000010010010,
1022,
1000000010010010,
2022,
1000000010010010,
1022,
1000000010010010,
2022, //8
10101001,
10100001,
10100002,
2200,
10101001,
10100001,
10100001,
7008, //16
1000100010110000,
1000000010110000,
2000200020220000,
2000000020220000,
1000100010110000,
1000000010110000,
2222,
3334, //24
#GOGOSTART
30111201,
01010220,
11011201,
01011020,
6,
000000000000000008000000000000000000000000000000,
7,
0008, //32
30111201,
01010220,
11011201,
01011020,
6,
000000000000000008000000000000000000000000000000,
10101022,
01010020, //40
1000000010010010,
1022,
1000000010010010,
1033,
#GOGOEND
0,
0, //46
#END

COURSE:Normal
LEVEL:3
BALLOON:9,15
SCOREINIT:10460
SCOREDIFF:0
#START
11,
1022,
11,
2022,
11,
1022,
11,
2022, //8
1110,
1100,
1100,
2200,
1110,
1100,
1100,
7008, //16
1110,
11,
2220,
22,
1110,
11,
2220,
3333, //24
#GOGOSTART
3011,
02020000,
1011,
02022000,
6,
000000000000000008000000000000000000000000000000,
7,
0008, //32
3011,
02020000,
1011,
02022000,
6,
000000000000000008000000000000000000000000000000,
1011,
02020000, //40
11,
1022,
11,
1033,
#GOGOEND
0,
0, //46
#END

COURSE:Easy
LEVEL:2
BALLOON:5,12
SCOREINIT:15080
SCOREDIFF:0
#START
11,
1,
11,
2,
11,
1,
11,
2, //8
11,
1100,
1,
2200,
11,
1100,
1,
7008, //16
1110,
1,
2220,
2,
1110,
1,
22,
3330, //24
#GOGOSTART
3011,
0,
1011,
02,
6,
000000000000000008000000000000000000000000000000,
7,
0008, //32
3011,
0,
1011,
02,
6,
000000000000000008000000000000000000000000000000,
1011,
0, //40
11,
1,
11,
1033,
#GOGOEND
0,
0, //46
#END
