//TJADB Project
TITLE:Genesis Ray
TITLEJA:Genesis Ray
SUBTITLE:--kyo(BNSI) feat. Yukiko Yamamoto / Synchronica
SUBTITLEJA:kyo(BNSI) 「シンクロニカ」より
BPM:85
WAVE:Genesis Ray.ogg
OFFSET:-0.670
DEMOSTART:18.967

COURSE:Edit
LEVEL:10
BALLOON:30
SCOREINIT:1010
SCOREDIFF:0
#START
#MEASURE 3/4
101220,
101220,
101222,
102122112212,
101220,
101220,
101220,
#MEASURE 5/4
600000000000000000000000000000000008
#BPMCHANGE 86.67
000000000000000000000000, //8
#MEASURE 8/4
#BPMCHANGE 260
#SCROLL 0.67
30001010100010101000101011111111,
100000000000100000100000100000000000100000100000100000000000200020002000100100100100100100100100,
10001010100010101000101011111111,
#MEASURE 6/4
10000000100010001000000010001000
#BPMCHANGE 130
#SCROLL 1.34
#GOGOSTART
3000111040002220, //12
#GOGOEND
#MEASURE 8/4
#BPMCHANGE 260
#SCROLL 0.67
10002010101020101010201011111111,
100000100000200000100000100000100000200000100000100000100000200020002000100100100100100100100100,
10102020101020201010202011111111,
#MEASURE 6/4
10001000200020001000100020002000
#BPMCHANGE 130
#SCROLL 1.34
#GOGOSTART
3000111040002220, //16
#GOGOEND
#MEASURE 8/4
#BPMCHANGE 260
#SCROLL 0.67
11102010201020201110201020102020,
100100100000200000100000200000100000200000200000100100100000200020002000100000100000200000200000,
11102010201020201110201020102020,
11102010201020201011111020222220, //20
11102010201020201110201020102020,
100100100000200000100000200000100000200000200000100100100000200020002000100000100000200000200000,
11102010201010201110201020101020,
11102010201010201111202011112222, //24
10002220101020001110202011102000,
10002220101020001110202011112000, //26
#GOGOSTART
10102110201011201010211020201120,
10102110201011202000111120001111,
20102110202011201010211020101120,
10102110202011202000111120002111, //30
20102110201011201010211020201120,
10102110201011202000111120001111,
20102110202011201010211020101120,
10102110202011202000222211112000, //34
#GOGOEND
#MEASURE 4/4
#BPMCHANGE 105
#SCROLL 1
7,
8000000000000011,
13,
2210221022102210,
200200100100200200100100200200100100200200100122,
#MEASURE 5/4
2000
#BPMCHANGE 70
0, //40
#MEASURE 6/4
#BPMCHANGE 280
#SCROLL 0.67
300011101000200010201000,
100011101010200020102222,
100011101000200010201000,
100011101010200022102222, //44
100011101000200010201000,
100011101010200020102222,
100011101000200020102000,
100000000000100100100000200000000000500000000000000000000008000000000000, //48
221122101010221122101010,
221122101010221110001011,
200000000200000222,
100020001111200010000000, //52
200200100100100000100000200020001000200200100000200200100100200020000000,
200020001000200020001000200000200200100000100000100100200000100100200200,
500000000008000000000000100000100100200000000000200000000000200000000000,
500000000000000000000008000000000000200200200200100100100100200200200200, //56
#GOGOSTART
101020111010201022102220,
101020111010201022102222,
101020111010201022102220,
101020111010221022102222, //60
101020111010201022102220,
101020111010201022102222,
101020111010201022102220,
111020111011222211112222, //64
#GOGOEND
111021,
000020002000
#GOGOSTART
112011201120, //66
#GOGOEND
100011101000000022201000,
000022202000
#GOGOSTART
112011201120, //68
#GOGOEND
100011111000100022221000,
100022222000
#GOGOSTART
122012201220, //70
#GOGOEND
#MEASURE 2/4
#BPMCHANGE 46.67
#SCROLL 2
34,
#MEASURE 6/4
#BPMCHANGE 280
#SCROLL 1
#GOGOSTART
222211112222111122221111,
22112211221121121121
#GOGOEND
2000, //73
#MEASURE 3/4
#BPMCHANGE 140
#SCROLL 2
0,
0, //75
#END

COURSE:Oni
LEVEL:8
BALLOON:28,25
SCOREINIT:1660
SCOREDIFF:0
#START
#MEASURE 3/4
0,
0,
0,
0,
110,
110,
110,
#MEASURE 5/4
700
#BPMCHANGE 86.67
80, //8
#MEASURE 8/4
#BPMCHANGE 260
#SCROLL 0.5
1010202010102222,
1010202010102222,
1010202010102222,
#MEASURE 6/4
1122
#BPMCHANGE 130
#SCROLL 1
#GOGOSTART
33, //12
#GOGOEND
#MEASURE 8/4
#BPMCHANGE 260
#SCROLL 0.5
1011202210112222,
1011202210112222,
1011202210112222,
#MEASURE 6/4
10112020
#BPMCHANGE 130
#SCROLL 1
#GOGOSTART
3030, //16
#GOGOEND
#MEASURE 8/4
#BPMCHANGE 260
#SCROLL 0.5
1111222211112222,
1111112211211121,
1111222211112222,
1111221122112220, //20
1111222211112222,
1111112211211121,
1111222211112222,
1111111122112220, //24
3021112111211120,
1121112111211120, //26
#GOGOSTART
3021112111211121,
1121112222112210,
3021112111211121,
1121112222112210, //30
3021112111211121,
1121112222112210,
3021112111211121,
1121112222112220, //34
#GOGOEND
#MEASURE 4/4
#BPMCHANGE 105
#SCROLL 1
7,
8,
22,
1111,
22,
#MEASURE 5/4
2020
#BPMCHANGE 70
0, //40
#MEASURE 6/4
#BPMCHANGE 280
#SCROLL 0.5
301110201110,
101110202012,
101110201110,
101111201010, //44
301110201110,
201120102012,
101120102110,
201111200000, //48
111110111110,
111110111011,
200000200022,
101110201000, //52
111022201110,
222220111110,
202122,
500000000000000000000000000000000000000000000000000000000008000000000000, //56
#GOGOSTART
301101202120,
111101202121,
101101202120,
111101202122, //60
101101202120,
111101202121,
101101202120,
500000000000000000000000000000000000000000000000000000000008000000000000, //64
#GOGOEND
122122,
122
#GOGOSTART
333, //66
#GOGOEND
102220102220,
102220
#GOGOSTART
303030, //68
#GOGOEND
100222200100222200,
100222200
#GOGOSTART
400400400, //70
#GOGOEND
#MEASURE 2/4
#BPMCHANGE 46.67
#SCROLL 3
34,
#MEASURE 6/4
#BPMCHANGE 280
#SCROLL 0.5
#GOGOSTART
6,
000000000000000000000000000000000000000000000000000000000008
#GOGOEND
000000000000, //73
#MEASURE 3/4
#BPMCHANGE 140
#SCROLL 1
0,
0, //75
#END

COURSE:Hard
LEVEL:7
BALLOON:21,13,13,22
SCOREINIT:3030
SCOREDIFF:0
#START
#MEASURE 3/4
0,
0,
0,
0,
110,
110,
110,
#MEASURE 5/4
700
#BPMCHANGE 86.67
80, //8
#MEASURE 8/4
#BPMCHANGE 260
#SCROLL 0.5
1000101010001111,
1000101010001111,
1000101010001111,
#MEASURE 6/4
1011
#BPMCHANGE 130
#SCROLL 1
#GOGOSTART
33, //12
#GOGOEND
#MEASURE 8/4
#BPMCHANGE 260
#SCROLL 0.5
1000102010001111,
1000102010001110,
1000102010001111,
#MEASURE 6/4
1012
#BPMCHANGE 130
#SCROLL 1
#GOGOSTART
33, //16
#GOGOEND
#MEASURE 8/4
#BPMCHANGE 260
#SCROLL 0.5
11212121,
500000000000000000000000000000000000000000000000000000000000000000000000000000000008000000000000,
11212122,
70000008, //20
11212121,
500000000000000000000000000000000000000000000000000000000000000000000000000000000008000000000000,
11212122,
70000008, //24
11111122,
11111122, //26
#GOGOSTART
3000101110102020,
1010102220002000,
3000101110102020,
1010102220002000, //30
3000101110102020,
1010102220002000,
3000101110102020,
1010102220002000, //34
#GOGOEND
#MEASURE 4/4
#BPMCHANGE 105
#SCROLL 1
7,
8,
22,
1111,
22,
#MEASURE 5/4
2020
#BPMCHANGE 70
0, //40
#MEASURE 6/4
#BPMCHANGE 280
#SCROLL 0.5
300111,
100000101110,
100111,
101110202000, //44
300111,
100010101110,
101212,
500000000000000000000000000000000000000000000000000000000008000000000000, //48
111000111000,
111000111000,
200202,
111210, //52
111000111000,
111000111000,
201122,
500000000000000000000000000000000000000000000000000000000008000000000000, //56
#GOGOSTART
300100201010,
100100201011,
100100201010,
100100201011, //60
100100202020,
100100202011,
100100202020,
500000000000000000000000000000000000000000000000000000000008000000000000, //64
#GOGOEND
110110,
110
#GOGOSTART
333, //66
#GOGOEND
110110,
110
#GOGOSTART
333, //68
#GOGOEND
101110101110,
101110
#GOGOSTART
404040, //70
#GOGOEND
#MEASURE 2/4
#BPMCHANGE 46.67
#SCROLL 3
34,
#MEASURE 6/4
#BPMCHANGE 280
#SCROLL 0.5
#GOGOSTART
6,
000000000000000000000000000000000000000000000000000000000008
#GOGOEND
000000000000, //73
#MEASURE 3/4
#BPMCHANGE 140
#SCROLL 1
0,
0, //75
#END

COURSE:Normal
LEVEL:7
BALLOON:12,8,8,13
SCOREINIT:4160
SCOREDIFF:0
#START
#MEASURE 3/4
0,
0,
0,
0,
110,
110,
110,
#MEASURE 5/4
700
#BPMCHANGE 86.67
80, //8
#MEASURE 8/4
#BPMCHANGE 260
#SCROLL 0.5
10101011,
10101011,
10101011,
#MEASURE 6/4
1010
#BPMCHANGE 130
#SCROLL 1
#GOGOSTART
33, //12
#GOGOEND
#MEASURE 8/4
#BPMCHANGE 260
#SCROLL 0.5
10201021,
10201021,
10201021,
#MEASURE 6/4
1020
#BPMCHANGE 130
#SCROLL 1
#GOGOSTART
33, //16
#GOGOEND
#MEASURE 8/4
#BPMCHANGE 260
#SCROLL 0.5
10202120,
500000000000000000000000000000000000000000000000000000000000000000000000000000000008000000000000,
10202120,
70000008, //20
10202120,
500000000000000000000000000000000000000000000000000000000000000000000000000000000008000000000000,
10202120,
70000008, //24
10111012,
10111022, //26
#GOGOSTART
30101122,
10122020,
30101122,
10122020, //30
30101122,
10122020,
30101122,
10122020, //34
#GOGOEND
#MEASURE 4/4
#BPMCHANGE 105
#SCROLL 1
7,
8,
22,
1111,
22,
#MEASURE 5/4
2020
#BPMCHANGE 70
0, //40
#MEASURE 6/4
#BPMCHANGE 280
#SCROLL 0.5
31,
100111,
11,
110220, //44
31,
101110,
111,
500000000000000000000000000000000000000000000000000000000008000000000000, //48
110110,
110200,
110110,
111200, //52
110110,
110200,
101111,
500000000000000000000000000000000000000000000000000000000008000000000000, //56
#GOGOSTART
300100101000,
100100101010,
100100101000,
100100101010, //60
300100202000,
100100101010,
100100202000,
500000000000000000000000000000000000000000000000000000000008000000000000, //64
#GOGOEND
110110,
110
#GOGOSTART
333, //66
#GOGOEND
110110,
110
#GOGOSTART
333, //68
#GOGOEND
120120,
120
#GOGOSTART
444, //70
#GOGOEND
#MEASURE 2/4
#BPMCHANGE 46.67
#SCROLL 3
34,
#MEASURE 6/4
#BPMCHANGE 280
#SCROLL 0.5
#GOGOSTART
6,
000000000000000000000000000000000000000000000000000000000008
#GOGOEND
000000000000, //73
#MEASURE 3/4
#BPMCHANGE 140
#SCROLL 1
0,
0, //75
#END

COURSE:Easy
LEVEL:5
BALLOON:11,6,6,11
SCOREINIT:4960
SCOREDIFF:0
#START
#MEASURE 3/4
0,
0,
0,
0,
110,
110,
110,
#MEASURE 5/4
700
#BPMCHANGE 86.67
80, //8
#MEASURE 8/4
#BPMCHANGE 260
#SCROLL 0.5
10101011,
1110,
10101011,
#MEASURE 6/4
1010
#BPMCHANGE 130
#SCROLL 1
#GOGOSTART
33, //12
#GOGOEND
#MEASURE 8/4
#BPMCHANGE 260
#SCROLL 0.5
10101011,
1110,
10101011,
#MEASURE 6/4
1010
#BPMCHANGE 130
#SCROLL 1
#GOGOSTART
33, //16
#GOGOEND
#MEASURE 8/4
#BPMCHANGE 260
#SCROLL 0.5
1122,
500000000000000000000000000000000000000000000000000000000000000000000008000000000000000000000000,
1122,
7008, //20
1122,
500000000000000000000000000000000000000000000000000000000000000000000008000000000000000000000000,
1122,
7008, //24
1112,
1112, //26
#GOGOSTART
30101111,
1122,
30101111,
1122, //30
30101111,
1122,
30101111,
1122, //34
#GOGOEND
#MEASURE 4/4
#BPMCHANGE 105
#SCROLL 1
7,
8,
22,
1111,
22,
#MEASURE 5/4
2020
#BPMCHANGE 70
0, //40
#MEASURE 6/4
#BPMCHANGE 280
#SCROLL 0.5
31,
100110,
11,
12, //44
31,
100110,
111,
500000000000000000000000000000000000000000000008000000000000000000000000, //48
110110,
110100,
110110,
110200, //52
110110,
110100,
101110,
500000000000000000000000000000000000000000000008000000000000000000000000, //56
#GOGOSTART
3110,
100100101000,
1110,
100100101000, //60
3120,
100100101000,
1120,
500000000000000000000000000000000000000000000008000000000000000000000000, //64
#GOGOEND
11,
100
#GOGOSTART
333, //66
#GOGOEND
11,
100
#GOGOSTART
333, //68
#GOGOEND
11,
100
#GOGOSTART
444, //70
#GOGOEND
#MEASURE 2/4
#BPMCHANGE 46.67
#SCROLL 3
34,
#MEASURE 6/4
#BPMCHANGE 280
#SCROLL 0.5
#GOGOSTART
6,
000000000000000000000000000000000000000000000000000000000008
#GOGOEND
000000000000, //73
#MEASURE 3/4
#BPMCHANGE 140
#SCROLL 1
0,
0, //75
#END
