//TJADB Project
TITLE:Tagatame
TITLEJA:誰我為
SUBTITLE:--TK from Ling Tosite Sigure/Boku no Hero Academia
SUBTITLEJA:TK from 凛として時雨 「僕のヒーローアカデミア」より
BPM:138
WAVE:Tagatame.ogg
OFFSET:-1.145
DEMOSTART:59.207

COURSE:Edit
LEVEL:8
BALLOON:
SCOREINIT:1910
SCOREDIFF:0
#START
1011101011111010,
1011101011111011,
1011101011111010,
1011101011111011,
1011111011111011,
1011111011111011,
1011111010111010,
1011101111111111, //8
2001200010112020,
1011200011102020,
1011200011102010,
1111200022111011,
1022102210221020,
1022102210221020,
1111111111111111,
100100100100100100100100100100100100101010101010,
1003, //17
1101201101102111,
1101201101102111,
1101201101102111,
1101201101102222,
1101201101102111,
1101201101102111,
1101201101102111,
100000200000100000200000101010101010200000200200,
1003, //26
1000002220000000,
0,
2,
2,
2212121122112000,
2102102102102022,
202020100100100100202020100100100100100100100100,
100300000000000111200000, //34
#GOGOSTART
3010201121102011,
1010201012212020,
1010201121102011,
1010201012212022,
1020102010221222,
1020102010221222,
1010222210102222,
100000100000100000100000202020100100100100100100, //42
1010201121102011,
1010201011021102,
1010201121102011,
1010201010111111,
100111100400000111100400,
000000101010100000400000000000101010100000200200,
1010210210102102,
1011111111111111,
#GOGOEND
0, //51
#END

COURSE:Oni
LEVEL:6
BALLOON:28,46
SCOREINIT:2760
SCOREDIFF:0
#START
11021202,
1000111000202020,
11221222,
1000111000201020,
1020022000200020,
1000111000200020,
12020212,
1020001110201020, //8
20400112,
04010112,
12121221,
1110200010102020,
12121122,
12121105,
000000000008000000700000000000000000000000000000,
00000008,
1010201101203000, //17
1102201102201020,
1010102201201010,
2020102101201020,
1010102101102220,
1010201102201020,
1010102201202220,
1010202101201020,
1020102101100000,
1010201101203000, //26
1020202020020020,
000002020000000002020000000000200000000000200000,
20220202,
2002002000200020,
1000200202002000,
1000200202102010,
1022101022101010,
33000040, //34
#GOGOSTART
1022102210102011,
1010201022102000,
1022102210102011,
1010201011102020,
1020102210120120,
1020102210120120,
1022101022101010,
33010140, //42
1022102210102011,
1010201022102000,
1022102210102011,
1010201011102020,
3011104000111040,
0011104000111070,
0,
0,
#GOGOEND
8, //51
#END

COURSE:Hard
LEVEL:5
BALLOON:24,37
SCOREINIT:3740
SCOREDIFF:0
#START
11020202,
10010222,
10221022,
10010202,
12020202,
10010202,
12020202,
12010101, //8
20400112,
04000112,
10221021,
01201122,
12021022,
12000105,
000000000008000000700000000000000000000000000000,
00000008,
1003, //17
1101101101100000,
1010102200200000,
1010101101100020,
2010102200200000,
1010101101100010,
1010102202200000,
1010101101100020,
2010102200200000,
1003, //26
1020202020020020,
02020202,
20220202,
2002002000200020,
1202,
10200111,
1001001000101010,
33000040, //34
#GOGOSTART
12121011,
0010201011101000,
12121011,
0010201022202000,
1020102010110220,
0020102010110220,
0010101011101010,
33010140, //42
12121011,
0010201011101000,
12121011,
0010201022202000,
31140114,
01140117,
0,
0,
#GOGOEND
8, //51
#END

COURSE:Normal
LEVEL:5
BALLOON:14,22
SCOREINIT:5700
SCOREDIFF:0
#START
11010101,
00000110,
10101011,
00000202,
02020202,
00000101,
01010101,
01000101, //8
10400111,
04000110,
10101011,
00001011,
01022022,
02000105,
000000000008000000700000000000000000000000000000,
0,
8003, //17
1000100100100000,
1000200200200000,
10102201,
1000100100100000,
1000100100100010,
1000200200200000,
1000100100100020,
2000100100100000,
1003, //26
10002002,
00020000,
20020000,
20020000,
1002,
10000110,
1001001000100030,
03000040, //34
#GOGOSTART
10101011,
01102020,
10101011,
01102020,
1000100010010010,
2000200020020020,
10101013,
03010040, //42
10101011,
01101110,
10101011,
02202220,
01130113,
01130117,
0,
0,
#GOGOEND
8, //51
#END

COURSE:Easy
LEVEL:3
BALLOON:12,20
SCOREINIT:13300
SCOREDIFF:0
#START
1,
1,
1,
1,
1,
1,
11,
1, //8
3,
3,
1,
1,
11,
11,
10070000,
0,
8, //17
10010000,
1,
10010000,
1,
10010000,
1,
10010000,
1,
1, //26
12,
00020000,
2,
2,
1,
1,
10000003,
03000000, //34
#GOGOSTART
10001001,
0110,
10001001,
0110,
1110,
2220,
10101003,
03000000, //42
10001001,
0110,
10001001,
0110,
00030003,
00030007,
0,
0,
#GOGOEND
8, //51
#END
