//TJADB Project
TITLE:Orange
TITLEJA:オレンジ
SUBTITLE:--Haikyuu! The Dumpster Battle
SUBTITLEJA:「劇場版ハイキュー!! ゴミ捨て場の決戦」より
BPM:200
WAVE:Orange.ogg
OFFSET:-1.086
DEMOSTART:61.632

COURSE:Oni
LEVEL:7
BALLOON:9,15
SCOREINIT:2250
SCOREDIFF:0
#START
20110020,
01,
20110020,
0021,
20110020,
01,
20110020,
0022202020202020, //8
20110020,
01,
500000000008,
0022201020101010,
1110101020101010,
01112110,
1110101020101020,
01112120, //16
1110101020101010,
01112110,
2220202010202010,
01112220,
1110101020101010,
01112110,
1110101020101020,
01112120,
1110101020101010,
0010101020202220, //26
10011201,
01011201,
10011020,
11011201,
10011020,
10021020,
10011020,
10021020, //34
10011201,
01011201,
10011020,
11011221,
10011020,
11021020,
10011020,
7008, //42
11110122,
111111,
22220212,
10011020,
11110122,
111111,
22212101,
500000000000000000000000000000000000000000000008,
0022, //51
#GOGOSTART
1110201000102000,
1010200011102000,
1110201000102000,
1010200011102000,
1000200011102000,
1110201000102000,
1110201000102000,
1110001020020020, //59
1110201000102000,
1000201020020020,
1110201000102000,
1000201022200000,
1110001020101000,
1110001020102000,
7,
82, //67
#GOGOEND
6,
000000000008000000000000000000000000000000000000,
1110101020101020,
01112120,
1110101020101010,
01112110,
2220202010202010,
0010101022200000, //75
6,
000000000000000000000000000000000008000000000000,
1110101020101020,
01112120,
1110101020111010,
0011101020202220,
0,
0, //83
#END

COURSE:Hard
LEVEL:4
BALLOON:15,12,18
SCOREINIT:4300
SCOREDIFF:0
#START
20220020,
01,
20220020,
02,
20220020,
01,
20220020,
02, //8
20220020,
01,
500000000000000000000000000000000000000000000008,
0,
11101102,
01101000,
11101102,
01101000, //16
11101102,
01101000,
22202202,
01101000,
11101102,
01101000,
11101102,
01101000,
11101102,
01101000, //26
1011,
02,
1011,
02,
1001,
12,
1,
1022, //34
1011,
02,
1011,
02,
1001,
12,
1,
7, //42
08,
111100,
1001,
10011020,
1,
111100,
10022000,
500000000000000000000000000000000000000000000008,
0022, //51
#GOGOSTART
10210120,
1212,
10210120,
1212,
1012,
10210120,
10210120,
10012000, //59
10210120,
10012000,
10210120,
14,
30011020,
10011020,
7,
82, //67
#GOGOEND
6,
000000000008000000000000000000000000000000000000,
11101102,
01011000,
11101102,
01011000,
22202202,
01003000, //75
6,
000000000000000000000000000000000008000000000000,
11101102,
01011000,
9,
09,
8,
0, //83
#END

COURSE:Normal
LEVEL:4
BALLOON:10,9,12
SCOREINIT:8610
SCOREDIFF:0
#START
2002,
0,
2002,
0,
2002,
0,
2002,
0, //8
2002,
0,
500000000000000000000000000000000000000000000008,
0,
11,
01001000,
11,
01001000, //16
11,
01001000,
22,
01001000,
11,
01001000,
11,
01001000,
11,
01001000, //26
1,
02,
1,
02,
1,
1,
1,
11, //34
11,
02,
11,
02,
1,
1,
1,
7, //42
08,
11,
1,
10011000,
1,
33,
10011000,
500000000000000000000000000000000000000000000008,
0, //51
#GOGOSTART
10110010,
01,
10110010,
12,
16,
0,
000000000000000000000000000000000000000000000008,
0, //59
10110010,
01,
10110010,
03,
3001,
10011010,
7,
81, //67
#GOGOEND
6,
000000000008000000000000000000000000000000000000,
11,
01011000,
11,
01011000,
22,
03, //75
6,
000000000000000000000008000000000000000000000000,
11,
01011000,
9,
09,
8,
0, //83
#END

COURSE:Easy
LEVEL:3
BALLOON:8,6,10
SCOREINIT:12250
SCOREDIFF:0
#START
2,
0,
2,
0,
2,
0,
2,
0, //8
2,
0,
500000000000000000000000000000000000000000000008,
0,
11,
01,
11,
01, //16
11,
01,
22,
01,
11,
01,
11,
01,
11,
01, //26
1,
01,
1,
01,
1,
1,
1,
11, //34
1,
01,
1,
01,
1,
1,
1,
7, //42
08,
11,
0,
22,
0,
33,
01,
500000000000000000000000000000000000000000000008,
0, //51
#GOGOSTART
1101,
01,
1101,
11,
16,
0,
000000000000000000000000000000000000000000000008,
0, //59
1101,
01,
1101,
03,
3,
1,
7,
8, //67
#GOGOEND
6,
000000000008000000000000000000000000000000000000,
11,
01,
11,
01,
22,
03, //75
6,
000000000000000000000008000000000000000000000000,
11,
01,
9,
09,
8,
0, //83
#END
