//TJADB Project
TITLE:Seishun Complex
TITLEJA:青春コンプレックス
SUBTITLE:--Bocchi the Rock!
SUBTITLEJA:「ぼっち・ざ・ろっく!」より
BPM:190
WAVE:Seishun Complex.ogg
OFFSET:-1.336
DEMOSTART:40.496 //shinuchi:
1680/2730/4630/6810

COURSE:Oni
LEVEL:8
BALLOON:
SCOREINIT:540,1750
SCOREDIFF:140
#START
30030030,
000222200000,
11120121,
1020201210102010,
11120121,
1020201110102000,
11120121,
1020201210102010,
11120121,
1010201022222010, //10
1000102220102010,
1000201210102010,
1000102220102010,
1020201110102010,
1000102220102010,
1000201210102011,
11221222,
1022202010201000, //18
400000100200100000500008000000200000200200100100,
1040104022100011,
1122204000400030,
0010201010112212, //22
1020201110102010,
1020201110102022,
1020201020122010,
2022202022202010,
1020201110102010,
1020201110102022,
1020201020122010,
2220222022221111,
1111, //31
#GOGOSTART
4000100011101000,
3000100011101000,
600000000000000000000008000000000000100000000000,
1020102022202022,
1010201011102010,
1010201011102000,
1110111022202220,
1010200010222220, //39
3000100011101000,
3000100011101000,
600000000000000000000008000000000000100000000000,
1020102022202022,
1010201011102010,
1010201011102000,
2220111022201110,
1000400022111000, //47
4000101011102010,
3000201011102010,
600000000000000000000008000000000000100000000000,
1020102022202022,
1010201011102010,
1010201011102000,
1111101022222020,
1010201010222220, //55
3000201011102010,
3000201011102010,
600000000000000000000008000000000000100000000000,
1020102022202022,
1010201011102010,
1010201011102000,
2222111122221111,
1020122212221222, //63
#GOGOEND
1000201000102011,
1010201000102022,
1002002010020020,
1010101212121212,
11120202,
0020002010111000,
33033033,
0, //71
#END

COURSE:Hard
LEVEL:6
BALLOON:10
SCOREINIT:670,2940
SCOREDIFF:188
#START
30030030,
000000000000500000000008000000000000000000000000,
11120201,
02011110,
11120201,
0020001110002000,
11120201,
02011110,
11120201,
0020202020222000, //10
10120221,
1110,
10120111,
2220,
10120221,
1110,
10222020,
1122, //18
6,
000000000000000000000000000008000000000000100000,
11140403,
0, //22
10111121,
1210,
10111121,
2220,
10111121,
1210,
10111122,
2000200022202000,
0, //31
#GOGOSTART
40101110,
30101110,
600000000000000000000008000000000000100000000000,
1000100022202000,
10201120,
10201120,
1110100011101000,
1000200022200000, //39
30101110,
30101110,
600000000000000000000008000000000000100000000000,
1000100022202000,
10201121,
11201120,
2220100022201000,
1000400011101000, //47
40101110,
30201110,
600000000000000000000008000000000000100000000000,
1000100022202000,
10201120,
10201120,
1110200011102000,
1000200022200000, //55
30201120,
30201120,
600000000000000000000008000000000000100000000000,
1000100022202000,
10201121,
11201120,
1110101022202020,
1000200011111000, //63
#GOGOEND
10210121,
11210121,
1001001010010010,
700008,
11120202,
02020200,
33033033,
0, //71
#END

COURSE:Normal
LEVEL:5
BALLOON:8
SCOREINIT:840,5210
SCOREDIFF:290
#START
30030030,
000000000000500000000008000000000000000000000000,
1,
11,
1,
11,
1,
11,
1,
2022, //10
12,
1110,
12,
2220,
12,
1110,
12,
2222, //18
6,
000000000000000000000000000008000000000000000000,
10040403,
0, //22
1011,
1110,
1011,
2220,
1011,
1110,
1011,
2222,
0, //31
#GOGOSTART
4011,
3011,
600000000000000000000008000000000000100000000000,
10102220,
1211,
1211,
1111,
0220, //39
3011,
3011,
600000000000000000000008000000000000100000000000,
10102220,
1211,
1211,
11102220,
10401110, //47
4011,
3011,
600000000000000000000008000000000000100000000000,
10102220,
1211,
1211,
11101010,
0220, //55
3011,
3011,
600000000000000000000008000000000000100000000000,
10102220,
1211,
1211,
11102220,
10201110, //63
#GOGOEND
1,
1,
11,
700008,
0,
0,
33033033,
0, //71
#END

COURSE:Easy
LEVEL:3
BALLOON:6
SCOREINIT:720,8380
SCOREDIFF:328
#START
30030030,
000000000000500000000008000000000000000000000000,
1,
11,
1,
11,
1,
11,
1,
22, //10
1,
11,
1,
11,
1,
11,
1,
22, //18
6,
000000000000000000000000000008000000000000000000,
10040404,
0, //22
11,
1110,
11,
2220,
11,
1110,
11,
2222,
0, //31
#GOGOSTART
33,
33,
600000000000000000000008000000000000000000000000,
12,
1100,
1100,
1011,
0110, //39
33,
33,
600000000000000000000008000000000000000000000000,
12,
1100,
1100,
11,
1110, //47
33,
33,
600000000000000000000008000000000000000000000000,
12,
1100,
1100,
1011,
0110, //55
33,
33,
600000000000000000000008000000000000000000000000,
12,
1100,
1100,
11,
1110, //63
#GOGOEND
1,
1,
11,
700008,
0,
0,
30030030,
0, //71
#END
