//TJADB Project
TITLE:UUUUUS!
TITLEJA:あーーっす!
SUBTITLE:--One Piece
SUBTITLEJA:「ワンピース」より
BPM:182
WAVE:UUUUUS.ogg
OFFSET:-0.776
DEMOSTART:31.116 //shinuchi:
10600/5530/3960/2380

COURSE:Oni
LEVEL:6
BALLOON:
SCOREINIT:700,2700
SCOREDIFF:188
#START
30030060,
000000000000000000000000000008000000000000000000,
30030060,
000000000000000000000000000008000000000000000000,
1111,
1010101011111000, //6
1000201110201000,
1110200011102010,
1000201110201011,
1001001010102020,
10201121,
1000200010222020,
11201121,
1000200000111020, //14
0011102000111020,
1000200010001011,
20101221,
10201122,
3030003000300011,
11110000,
4030403040110000,
33443040,
3001001000102020, //23
#GOGOSTART
1000200011102010,
0010201011102011,
1000200011102010,
0010201011102010,
2011100011100011,
1000101020011020, //29
1000200011102010,
0010201011102000,
3333,
3302,
1000201010222000,
1000201010222000,
1000201010222010,
10201121,
6,
000000000000000000000000000008000000000000000000, //39
#GOGOEND
10102011,
12102012,
10102011,
12112110,
10111111,
2010201011111000, //45
#GOGOSTART
1000200011102010,
0010201011102000,
3333,
3302,
1000201010222000,
1000201010222000,
1000201010222010,
11201121,
6,
000000000000000000000000000008000000000000000000, //55
10201121,
01211020,
10201121,
100111100200,
30430360,
000000000000000000000000000000000008000000000000,
30430360,
000000000000000000000000000000000008000000000000,
11112222,
3030303010111110, //65
#GOGOEND
3,
0,
0, //68
#END

COURSE:Hard
LEVEL:4
BALLOON:17,15,15,20
SCOREINIT:900,4790
SCOREDIFF:250
#START
3006,
000000000000000000000000000008000000000000000000,
3006,
000000000000000000000000000008000000000000000000,
7,
0008, //6
10211120,
10201121,
10211120,
1,
10101120,
10101120,
10201110,
10000121, //14
01210121,
2103,
30201120,
10201110,
600000000000000000000000000000000000000000000008,
0,
3000300030030000,
33334030,
3, //23
#GOGOSTART
10201011,
01211020,
10201011,
01211120,
1700,
0008, //29
10201011,
01211020,
3333,
3302,
10211020,
10211020,
10211021,
1122,
6,
000000000000000000000000000008000000000000000000, //39
#GOGOEND
1021,
1121,
1021,
10101110,
1700,
0008, //45
#GOGOSTART
10201011,
01211020,
3333,
3302,
10211020,
10211020,
10211021,
1122,
6,
000000000000000000000000000008000000000000000000, //55
10201011,
01211020,
10201120,
1122,
30030060,
000000000000000000000000000008000000000000000000,
30030060,
000000000000000000000000000008000000000000000000,
9,
09, //65
#GOGOEND
080000000000000000000000000000000000000000000000,
0,
0, //68
#END

COURSE:Normal
LEVEL:3
BALLOON:11,11,11,14
SCOREINIT:880,7000
SCOREDIFF:300
#START
3006,
000000000000000000000000000008000000000000000000,
3006,
000000000000000000000000000008000000000000000000,
7,
00000800, //6
10010000,
1112,
10010000,
2,
1100,
1100,
1011,
1, //14
1012,
1103,
3001,
1111,
600000000000000000000000000000000000000000000008,
0,
3330,
30333030,
3, //23
#GOGOSTART
10101011,
0112,
10101011,
0112,
7,
00000800, //29
10101011,
0112,
3333,
3301,
10011000,
10011000,
20022000,
2222,
6,
000000000000000000000000000008000000000000000000, //39
#GOGOEND
12,
1120,
12,
1121,
7,
00000800, //45
#GOGOSTART
10101011,
0112,
3333,
3301,
10011000,
10011000,
20022000,
2222,
6,
000000000000000000000000000008000000000000000000, //55
10101011,
0112,
1002,
1111,
30030060,
000000000000000000000000000008000000000000000000,
30030060,
000000000000000000000000000008000000000000000000,
9,
09, //65
#GOGOEND
080000000000000000000000000000000000000000000000,
0,
0, //68
#END

COURSE:Easy
LEVEL:2
BALLOON:9,9,9,11
SCOREINIT:1050,13790
SCOREDIFF:695
#START
0,
0,
0,
0,
7,
00000800, //6
1,
11,
1,
2,
1,
1,
11,
1, //14
11,
1003,
3,
11,
600000000000000000000000000000000000000000000008,
0,
3,
3003,
3, //23
#GOGOSTART
1011,
01,
1011,
01,
7,
00000800, //29
1011,
01,
33,
3300,
11,
1,
22,
2,
6,
000000000000000000000000000008000000000000000000, //39
#GOGOEND
1,
2,
1,
2,
7,
00000800, //45
#GOGOSTART
1011,
01,
33,
3300,
11,
1,
22,
2,
6,
000000000000000000000000000008000000000000000000, //55
1011,
01,
1,
11,
3003,
0,
3003,
0,
9,
09, //65
#GOGOEND
080000000000000000000000000000000000000000000000,
0,
0, //68
#END
